04:10:51 - /var/app/video_pre_processor/assets/hvo/options_fe_audio_file_36.wav PlayTime:1.54
04:10:51 - /var/app/video_pre_processor/assets/hvo/options_fe_audio_file_142.wav PlayTime:1.57
04:10:51 - /var/app/video_pre_processor/assets/hvo/options_fe_audio_file_198.wav PlayTime:1.99
04:10:51 - ======= ALL Options  ========== 
null
04:10:51 - /var/www/html/clients/16534/audio/D865A5C3-D88C-4317-C1AC-C5CA2583116D_option.wav
04:10:51 - /usr/bin/sox /var/app/video_pre_processor/assets/hvo/options_fe_audio_file_55.wav /var/app/video_pre_processor/assets/hvo/options_fe_audio_file_7.wav /var/app/video_pre_processor/assets/hvo/options_fe_audio_file_82.wav /var/app/video_pre_processor/assets/hvo/options_fe_audio_file_83.wav /var/app/video_pre_processor/assets/hvo/options_fe_audio_file_10.wav /var/app/video_pre_processor/assets/hvo/options_fe_audio_file_272.wav /var/app/video_pre_processor/assets/hvo/options_fe_audio_file_104.wav /var/app/video_pre_processor/assets/hvo/options_fe_audio_file_17.wav /var/app/video_pre_processor/assets/hvo/options_fe_audio_file_36.wav /var/app/video_pre_processor/assets/hvo/options_fe_audio_file_142.wav /var/app/video_pre_processor/assets/hvo/options_fe_audio_file_198.wav /var/www/html/clients/16534/audio/D865A5C3-D88C-4317-C1AC-C5CA2583116D_option.wav
04:10:51 - /var/www/html/clients/16534/audio/D865A5C3-D88C-4317-C1AC-C5CA2583116D_option.wav PlayTime:15.75
04:10:51 - Skipping VTT for CARFAX - carfaxFile
04:10:51 - /var/app/video_pre_processor/assets/hvo/emotional_fe_audio_file_8.wav PlayTime:6.37
04:10:51 - /usr/bin/sox /var/app/video_pre_processor/assets/hvo/ie_fe_audio_file_24.wav /var/app/video_pre_processor/assets/hvo/year_fe_audio_file_37.wav /var/app/video_pre_processor/assets/hvo/model_name_fe_audio_file_395.wav /var/app/video_pre_processor/assets/hvo/model_fe_audio_file_395.wav /var/app/video_pre_processor/assets/hvo/miles_fe_audio_file_11.wav /var/www/html/clients/16534/audio/D865A5C3-D88C-4317-C1AC-C5CA2583116D_option.wav /var/app/video_pre_processor/assets/hvo/emotional_fe_audio_file_8.wav /var/www/html/clients/16534/audio/D865A5C3-D88C-4317-C1AC-C5CA2583116D_temp1.wav
04:10:51 - Return from CheckProfileVal function::0 - REPLACE_FULL_AUDIO - 
04:10:51 - Return from CheckProfileVal function::0 - REPLACE_FULL_AUDIO_NEW - 
04:10:51 - ========REPALCE AUDIO TRACK LISTING TYPE used \ n USED VALUE : 0 NEW AUDIO VALUE : { 0} ==============

04:10:51 - Video Length for audio merge: 0
04:10:51 - /root/bin/ffmpeg  -i /var/www/html/clients/16534/audio/D865A5C3-D88C-4317-C1AC-C5CA2583116D.wav -f mp3 -ar 44100 -ab 320 -ac 2 -y /var/www/html/clients/16534/audio/D865A5C3-D88C-4317-C1AC-C5CA2583116D.mp3
ffmpeg version N-109053-g9b13078c6a Copyright (c) 2000-2022 the FFmpeg developers
  built with gcc 5.4.0 (GCC)
  configuration: --prefix=/root/ffmpeg_build --pkg-config-flags=--static --extra-cflags=-I/root/ffmpeg_build/include --extra-ldflags=-L/root/ffmpeg_build/lib --extra-libs=-lpthread --extra-libs=-lm --bindir=/root/bin --enable-gpl --enable-libfdk_aac --enable-libfreetype --enable-libmp3lame --enable-libopus --enable-libvpx --enable-libx264 --enable-openssl --enable-libx265 --enable-nonfree --enable-libvidstab
  libavutil      57. 42.100 / 57. 42.100
  libavcodec     59. 52.101 / 59. 52.101
  libavformat    59. 34.101 / 59. 34.101
  libavdevice    59.  8.101 / 59.  8.101
  libavfilter     8. 50.100 /  8. 50.100
  libswscale      6.  8.112 /  6.  8.112
  libswresample   4.  9.100 /  4.  9.100
  libpostproc    56.  7.100 / 56.  7.100
Guessed Channel Layout for Input Stream #0.0 : stereo
Input #0, wav, from '/var/www/html/clients/16534/audio/D865A5C3-D88C-4317-C1AC-C5CA2583116D.wav':
  Duration: 00:00:40.43, bitrate: 1411 kb/s
  Stream #0:0: Audio: pcm_s16le ([1][0][0][0] / 0x0001), 44100 Hz, 2 channels, s16, 1411 kb/s
Stream mapping:
  Stream #0:0 -> #0:0 (pcm_s16le (native) -> mp3 (libmp3lame))
Press [q] to stop, [?] for help
[libmp3lame @ 0x341c480] Bitrate 320 is extremely low, maybe you mean 320k
The bitrate parameter is set too low. It takes bits/s as argument, not kbits/s
Output #0, mp3, to '/var/www/html/clients/16534/audio/D865A5C3-D88C-4317-C1AC-C5CA2583116D.mp3':
  Metadata:
    TSSE            : Lavf59.34.101
  Stream #0:0: Audio: mp3, 44100 Hz, stereo, s16p, 0 kb/s
    Metadata:
      encoder         : Lavc59.52.101 libmp3lame
size=       0kB time=-577014:32:22.77 bitrate=  -0.0kbits/s speed=N/A    
size=      96kB time=00:00:06.13 bitrate= 128.3kbits/s speed=12.2x    
size=     188kB time=00:00:11.99 bitrate= 128.2kbits/s speed=  12x    
size=     256kB time=00:00:19.77 bitrate= 106.0kbits/s speed=13.2x    
size=     256kB time=00:00:28.50 bitrate=  73.6kbits/s speed=14.2x    
size=     512kB time=00:00:36.52 bitrate= 114.8kbits/s speed=14.6x    
size=     632kB time=00:00:40.41 bitrate= 128.2kbits/s speed=14.7x    
video:0kB audio:632kB subtitle:0kB other streams:0kB global headers:0kB muxing overhead: 0.039078%
04:10:54 - /var/app/video_pre_processor/assets/vidbot/_files/audio/RF4_Country_Jazz.mp3 PlayTime:320.5
04:10:54 - Using RF4_Country_Jazz.mp3 - /var/app/video_pre_processor/assets/vidbot/_files/audio/RF4_Country_Jazz.mp3
04:10:54 - BG MUSIC FILE /var/app/video_pre_processor/assets/vidbot/_files/audio/RF4_Country_Jazz.mp3 

04:10:54 - BG AUDIO CLIENT OVELAY VALUE : 2 

04:10:54 - /var/www/html/clients/16534/audio/D865A5C3-D88C-4317-C1AC-C5CA2583116D.wav PlayTime:40.43
04:10:54 - VParent - VOLEN:42.43 | /var/www/html/clients/16534/audio/D865A5C3-D88C-4317-C1AC-C5CA2583116D.mp3 | /var/app/video_pre_processor/assets/vidbot/_files/audio/RF4_Country_Jazz.mp3 | /var/www/html/clients/16534/audio/D865A5C3-D88C-4317-C1AC-C5CA2583116D.wav
04:10:54 - AUDIO PROCESS RETURN VALUE: - 1
04:10:54 - update message_remote_queue set video_process_start = '2024-04-17 04:10:54' where queue_id = 132592
04:10:54 - CLIENT INFO DATA 
{"client_id":"16534","client_fk":"9F2DB78D-294B-7FBE-679F-3DEA25C0450E","client_acc_id":"142","client_name":"Uftring Ford","client_desc":"Uftring Ford","client_color":"000000","client_player_color":"","client_textcolor":"","client_tts_text":"","client_tts_options":"","client_inactive":"0","client_createdate":"2022-04-13 10:18:47","client_enddate":"","client_update":"2022-04-19 16:03:55","client_email_forward":"leads@UftringAutomallSales.com","client_dealer_id":"17057","client_franchise_number":"","client_salesperson_name":"VinSolutions","client_address":"500 Fairlane Dr","client_city":"East Peoria","client_state":"IL","client_zip":"61611","client_phone":"309-427-7900","client_url":"http:\/\/www.uftringford.com","client_fb_id":"72448698197","client_km":"0","client_special_price":"0","client_demo":"0","client_utube_flag":"0","client_cvo":"0","client_tts":"0","client_live_uv":"0","client_live_overlay":"2","client_av":"1","client_gv":"0","client_af":"1","client_video_email":"1","client_carfax":"0","client_intro":"0","client_outro":"0","client_slider":"0","client_music_id":"36","client_ei":"0","client_tts_vm":"2","client_hvo":"1","client_mobile":"0","client_portal":"0","client_instavid":"0","client_new_stock_video":"0","client_vidmagnet":"1","client_auto_play":"1","client_cpo":"1","client_vid_stab":"0","client_vp":"0","client_xl":"1","client_carstory":"0","client_360_player":"0","client_ece":"0","client_capture_video":"0","client_new_cvo":"0","client_pip":"1","client_account_id":"","client_crm_email":"","client_crm_dealer_id":"","client_crm_dealer_key":"","client_archive":"0","client_damage_photo":"0","client_package":"248","client_video_size":"HDLARGE","client_video_style":"RANDOM","client_lat_lng":"","client_comments":"Rob Boehm 4\/13\/2022","VIDEO_SIZE":"HD-XLARGE","SHOW_CARSTORY":"0"}
04:10:54 - Map Exists: /var/www/html/clients/16534/library/map.jpg
04:10:54 - Checking CUSTOM_INTRO
04:10:54 - Checking CUSTOM_OUTRO
04:10:54 - ================CREATE VIDEO START =========== 

04:10:54 - ================VIDEO JSON GEN START ==============
04:10:54 - Video Size 540
04:10:54 - ===========Video Theme font ================Dinot
04:10:54 - ==========Video fk : ==============D865A5C3-D88C-4317-C1AC-C5CA2583116D
04:10:54 - ==============AUDIO VIDEO CONFIG : =========={"BG_MUSIC":"RF4_Country_Jazz","THEME_BG_COLOR":"ffffff","THEME_ACCENTS_COLOR":"047ec1","THEME_FONT_COLOR":"000000","THEME_FONT":"Dinot","THEME_STYLE":"Ren","BG_VOL_LEVEL":"0.25","AUDIO_VO":"","VIDEO_SIZE":"HD-XLARGE","CUSTOM_INTRO":"","CUSTOM_OUTRO":"","THEME_KEY":"0_0_Auto_Default_0_ALL","THEME_RANK":"2","THEME_CONFIG":"GLOBAL_CONFIG","OLD_BG_STYLE":"0"}
04:10:54 - CLIENT FKEY :  9F2DB78D-294B-7FBE-679F-3DEA25C0450E  VIDEO FKEY :  D865A5C3-D88C-4317-C1AC-C5CA2583116D  VEHICLE FKEY :   
04:10:54 - INFO:: Video Type:SS Video Size:540 
04:10:54 - Return from CheckProfileVal function::0 - DISPLAY_MILEAGE - NO
04:10:54 - Return from CheckProfileVal function::0 - DISPLAY_MILEAGE - NO
04:10:54 - ==================ClipsGen START  =====================

04:10:54 - Return from CheckProfileVal function::0 - AUDIO_VO - NO_VO
04:10:54 - Return from CheckProfileVal function::0 - AUDIO_VO - NO_VO
04:10:54 - Return from CheckProfileVal function::0 - AUDIO_VO - LIVE_VO
04:10:54 - Return from CheckProfileVal function::0 - AUDIO_VO - LIVE_VO
04:10:54 - Return from CheckProfileVal function::0 - DISPLAY_OPTIONS - NO
04:10:54 - Return from CheckProfileVal function::0 - DISPLAY_OPTIONS - NO
04:10:54 - Return from CheckProfileVal function::0 - DISPLAY_PRICE - NO
04:10:54 - Return from CheckProfileVal function::0 - DISPLAY_PRICE - NO
04:10:54 - Return from CheckProfileVal function::0 - DISABLE_PRICE - YES
04:10:54 - Return from CheckProfileVal function::0 - DISPLAY_MILEAGE - NO
04:10:54 - Return from CheckProfileVal function::0 - DISPLAY_MILEAGE - NO
04:10:54 - Return from CheckProfileVal function::0 - DISPLAY_INFO - NO
04:10:54 - Return from CheckProfileVal function::0 - DISPLAY_INFO - NO
04:10:54 - Return from CheckProfileVal function::0 - DISPLAY_TITLE_WSNAME - NO
04:10:54 - Return from CheckProfileVal function::0 - DISPLAY_TITLE_WSNAME - NO
04:10:54 - Return from CheckProfileVal function::0 - DISPLAY_ALL_OVERLAYS - NO
04:10:54 - Return from CheckProfileVal function::0 - DISPLAY_ALL_OVERLAYS - NO
04:10:54 - Return from CheckProfileVal function::0 - DISPLAY_MAP - NO
04:10:54 - Return from CheckProfileVal function::0 - DISPLAY_MAP - NO
04:10:54 - =========THEME STYLE-FONT :Ren - Din  ============
04:10:54 - /usr/bin/sox  /var/app/video_pre_processor/assets/music/silence_3.wav /var/www/html/clients/16534/audio/D865A5C3-D88C-4317-C1AC-C5CA2583116D.wav /var/www/html/clients/16534/audio/D865A5C3-D88C-4317-C1AC-C5CA2583116D_info_audio.wav
04:10:54 - /var/app/video_pre_processor/assets/vidbot/_files/audio/RF4_Country_Jazz.mp3 PlayTime:320.5
04:10:54 - Return from CheckProfileVal function::0 - BG_MUSIC_OVER_ALL_CLIPS - YES
04:10:54 - Return from CheckProfileVal function::0 - BG_MUSIC_OVER_ALL_CLIPS - YES
04:10:54 - AUDIO TIMER: 
{"INTRO":0,"YEAR":1.75,"MODEL":3.26,"HIGH":4.1,"MILE":14.78,"ALL_OPTIONS":{"* General Options Intro":18.31,"Heated Mirrors":20.66,"All Wheel Drive":21.68,"Aluminum Wheels":22.86,"Rear Spoiler":24.06,"Remote Engine Start":25.16,"Brake Assist":26.6,"Stability Control":27.720000000000002,"Tire Pressure Monitor":28.970000000000002,"Daytime Running Lights":30.51,"Integrated Turn Signal Mirrors":32.08},"OPTIONS":20.31,"OPTIONS_AUD_LENGTH":15.75,"ENDFILE":34.07}
04:10:54 - ===================ClipsGen END  ======================== 

04:10:54 - INFO:: VIDEO JSON : "D865A5C3-D88C-4317-C1AC-C5CA2583116D.json"
04:10:54 - node /var/app/Vidbot-V2/dist/vidbot.js --input /var/www/html/clients/16534/video/D865A5C3-D88C-4317-C1AC-C5CA2583116D.json --log debug > /var/www/html/clients/16534/video/D865A5C3-D88C-4317-C1AC-C5CA2583116D.log
04:22:56 - Generated Video File./var/www/html/clients/16534/video/D865A5C3-D88C-4317-C1AC-C5CA2583116D.mp4
04:22:56 - INFO:: Generated Video File./var/www/html/clients/16534/video/D865A5C3-D88C-4317-C1AC-C5CA2583116D.mp4
04:22:56 - INFO:: Sprite & Bookmark Option(s) not enabled
04:22:56 - ================VIDEO JSON GEN END RETURN VALUE : 1 ============== 
04:22:56 - ================CREATE VIDEO END =========== 
 ERROR : { 0}
04:22:56 - Start Time:0
04:22:56 - 0##1.75##Take a ride in
04:22:56 - 1.75##3.26##The 2020
04:22:56 - 3.26##4.1##Impreza
04:22:56 - 4.1##14.78##A spirited drive and lifestyle-equipped amenities make Subaru Impreza the smart choice for dynamic people.  Full-throttle fun and performance grounded in safety and efficiency.
04:22:56 - 14.78##18.31##This Vehicle has less than 45000 miles
04:22:56 - Replacing VTT String * General Options Intro to Here are some of this Vehicle's great options
04:22:56 - 18.31##20.66##Here are some of this Vehicle's great options
04:22:56 - 20.66##21.68##Heated Mirrors
04:22:56 - 21.68##22.86##All Wheel Drive
04:22:56 - 22.86##24.06##Aluminum Wheels
04:22:56 - 24.06##25.16##Rear Spoiler
04:22:56 - 25.16##26.6##Remote Engine Start
04:22:56 - 26.6##27.72##Brake Assist
04:22:56 - 27.72##28.97##Stability Control
04:22:56 - 28.97##30.51##Tire Pressure Monitor
04:22:56 - 30.51##32.08##Daytime Running Lights
04:22:56 - 32.08##34.07##Integrated Turn Signal Mirrors
04:22:56 - 34.07##40.44##This beauty is sure to make you the talk of the neighborhood so call or drop in for a test drive today!
04:22:56 - Curl Response - {"code":200,"status":"VTT Updated"}
04:22:56 - Contents - /postVTTString/ - VTT Updated - 200
0##1.75##Take a ride in|||1.75##3.26##The 2020|||3.26##4.1##Impreza|||4.1##14.78##A spirited drive and lifestyle-equipped amenities make Subaru Impreza the smart choice for dynamic people.  Full-throttle fun and performance grounded in safety and efficiency.|||14.78##18.31##This Vehicle has less than 45000 miles|||18.31##20.66##Here are some of this Vehicle's great options|||20.66##21.68##Heated Mirrors|||21.68##22.86##All Wheel Drive|||22.86##24.06##Aluminum Wheels|||24.06##25.16##Rear Spoiler|||25.16##26.6##Remote Engine Start|||26.6##27.72##Brake Assist|||27.72##28.97##Stability Control|||28.97##30.51##Tire Pressure Monitor|||30.51##32.08##Daytime Running Lights|||32.08##34.07##Integrated Turn Signal Mirrors|||34.07##40.44##This beauty is sure to make you the talk of the neighborhood so call or drop in for a test drive today!
04:22:56 - VIDEO JSON GEN RETURN VALUE: - 0
04:22:56 - update message_remote_queue set error=0, video = 1, error_message = concat( "", error_message ), process_start = '2024-04-17 04:10:50', audio_process_start = '2024-04-17 04:10:50', audio_process_end = '2024-04-17 04:10:54', video_process_start ='2024-04-17 04:10:54', video_process_end='2024-04-17 04:22:56' where queue_id = 132592
04:22:56 - ==46 - 1 Elapsed Time 726.76 ==

04:22:56 - update queue_status set stat_last_update=NOW(), type_cnt = 46, type_loop_cnt = 92 where type_val = 'V1'
04:22:56 - Curl Response - {"code":200,"status":"Success:PostServerProcessDetails Posted For IP [209.59.156.167] and Process [V1]"}
04:22:56 - Contents - /postServerProcessDetails/ - Success:PostServerProcessDetails Posted For IP [209.59.156.167] and Process [V1] - 200
04:22:56 - update queue_status set stat_last_update=NOW(), type_cnt = 46, type_loop_cnt = 92 where type_val = 'V1'
04:22:57 - Curl Response - {"code":200,"status":"Success:PostServerProcessDetails Posted For IP [209.59.156.167] and Process [V1]"}
04:22:57 - Contents - /postServerProcessDetails/ - Success:PostServerProcessDetails Posted For IP [209.59.156.167] and Process [V1] - 200
04:22:57 - ========== 46  - 421 mins 549.41826086957 Video Process / Start:2024-04-16 21:09:02 / Mod:0/16======
04:22:58 - Fetching  Video Jobs Mod Val : 0 Mod Limit : 16 Queue ID : 0 

04:22:58 - ========select * from message_remote_queue, hvo_data where queue_id%16 = 0 and image = 1 and video = 0 and error = 0 and hvo_queue_id = queue_id   order by high_priority_row desc, queue_id asc limit 1==================count =1
04:22:58 - Processing Auto VideoFKEY:FE61C6EF-DE4F-B373-5737-969BACE3D407 - QueueID:132608 
04:22:58 - CLIENT INFO  CLIENT_FK  : 9D9816D3-0F50-AE76-A2F1-1CC749AF7027 ,CLIENT_INFO :{"client_id":"16724","client_fk":"9D9816D3-0F50-AE76-A2F1-1CC749AF7027","client_acc_id":"29","client_name":"Larry H. Miller Volkswagen Lakewood","client_desc":"360 Spin","client_color":"000000","client_player_color":"","client_textcolor":"","client_tts_text":"","client_tts_options":"","client_inactive":"0","client_createdate":"2022-05-16 17:55:40","client_enddate":"","client_update":"2023-02-13 16:30:07","client_email_forward":"devin.schubert@lhmauto.com","client_dealer_id":"Larry H. Miller Volkswagen Lakewood","client_franchise_number":"","client_salesperson_name":"Devin","client_address":"Schubert","client_city":"8303 W Colfax Avenue","client_state":"Lakewood","client_zip":"80214","client_phone":"855-413-4477","client_url":"/www.lhmvw.com","client_fb_id":"","client_km":"0","client_special_price":"0","client_demo":"0","client_utube_flag":"1","client_cvo":"1","client_tts":"0","client_live_uv":"1","client_live_overlay":"2","client_av":"0","client_gv":"0","client_af":"0","client_video_email":"0","client_carfax":"0","client_intro":"1","client_outro":"1","client_slider":"0","client_music_id":"15","client_ei":"0","client_tts_vm":"2","client_hvo":"1","client_mobile":"0","client_portal":"0","client_instavid":"0","client_new_stock_video":"0","client_vidmagnet":"0","client_auto_play":"1","client_cpo":"0","client_vid_stab":"1","client_vp":"1","client_xl":"1","client_carstory":"0","client_360_player":"1","client_ece":"0","client_capture_video":"0","client_new_cvo":"0","client_pip":"1","client_account_id":"","client_crm_email":"","client_crm_dealer_id":"","client_crm_dealer_key":"","client_archive":"0","client_damage_photo":"0","client_package":"41212","client_video_size":"HDXLARGE","client_video_style":"RANDOM","client_lat_lng":"","client_comments":"","CONVERT_360_PA_TO_VID":"1","CONVERT_360_TO_VID":"1","EXTRACT_IMAGES":"YES","THUMB_EXTRACT_TIME":"1","VIDEO_SIZE":"HD-XLARGE","VIDEO_STABILIZE":"YES","SHOW_CARSTORY":"0"}
04:22:58 - Rest Call: /client/videoDetails/9D9816D3-0F50-AE76-A2F1-1CC749AF7027?video_key=FE61C6EF-DE4F-B373-5737-969BACE3D407
04:22:58 - Curl Response - {"video_id":"47688568","video_fk":"FE61C6EF-DE4F-B373-5737-969BACE3D407","vehicle_id":"42187845","video_client_id":"16724","video_script":"Magnetic Black Metallic 2015 Nissan Murano Platinum AWD CVT with Xtronic 3.5L V6 DOHC CVT with Xtronic, AWD.CVT with Xtronic, AWD, 11 Speakers, 4-Wheel Disc Brakes, 4.677 Axle Ratio, ABS brakes, Air Conditioning, Alloy wheels, AM\/FM radio, Anti-whiplash front head restraints, Auto-dimming Rear-View mirror, Automatic temperature control, Brake assist, Bumpers: body-color, CD player, Compass, Delay-off headlights, Driver door bin, Driver vanity mirror, Dual front impact airbags, Dual front side impact airbags, Electronic Stability Control, Four wheel independent suspension, Front anti-roll bar, Front Bucket Seats, Front Center Armrest w\/Storage, Front dual zone A\/C, Front fog lights, Front reading lights, Fully automatic headlights, Garage door transmitter: HomeLink, Heated & Cooled Front Bucket Seats, Heated door mirrors, Heated front seats, Heated rear seats, Heated steering wheel, Illuminated entry, Knee airbag, Leather Appointed Seat Trim, Leather Shift Knob, Low tire pressure warning, Memory seat, Navigation System, Occupant sensing airbag, Outside temperature display, Overhead airbag, Overhead console, Panic alarm, Passenger door bin, Passenger vanity mirror, Power door mirrors, Power driver seat, Power Liftgate, Power passenger seat, Power steering, Power windows, Radio data system, Radio: AM\/FM\/CD Audio System w\/Navigation, Rear anti-roll bar, Rear reading lights, Rear seat center armrest, Rear window defroster, Rear window wiper, Remote keyless entry, Roof rack: rails only, Security system, Speed control, Speed-sensing steering, Speed-Sensitive Wipers, Split folding rear seat, Spoiler, Steering wheel memory, Steering wheel mounted audio controls, Tachometer, Telescoping steering wheel, Tilt steering wheel, Traction control, Trip computer, Turn signal indicator mirrors, Variably intermittent wipers, Ventilated front seats, and Wheels: 20 Machined Aluminum-Alloy. 21\/28 City\/Highway MPGStop by Larry H. Miller Volkswagen Lakewood and check out the beautiful selection of new and pre-owned vehicles with amazing pricing and financing options. Located at 8303 W. Colfax Ave, Lakewood, CO 80214 (at the intersection of W. Colfax and Carr Street).","video_tts_script":"","video_flv":"\/avavids\/1\/clients\/16724\/video\/FE61C6EF-DE4F-B373-5737-969BACE3D407.mp4","video_create_time":"2024-03-04 01:20:06","video_update_time":"2024-04-17 01:32:27","audio_length":"","video_options":"Navigation System,11 Speakers,AM\/FM radio,CD player,Radio data system,Radio: AM\/FM\/CD Audio System w\/Navigation,Air Conditioning,Automatic temperature control,Front dual zone A\/C,Rear window defroster,Memory seat,Power driver seat,Power steering,Power windows,Remote keyless entry,Steering wheel memory,Steering wheel mounted audio controls,Four wheel independent suspension,Speed-sensing steering,Traction control,4-Wheel Disc Brakes,ABS brakes,Anti-whiplash front head restraints,Dual front impact airbags,Dual front side impact airbags,Front anti-roll bar,Knee airbag,Low tire pressure warning,Occupant sensing airbag,Overhead airbag,Rear anti-roll bar,Power Liftgate,Brake assist,Electronic Stability Control,Delay-off headlights,Front fog lights,Fully automatic headlights,Panic alarm,Security system,Speed control,Bumpers: body-color,Heated door mirrors,Power door mirrors,Roof rack: rails only,Spoiler,Turn signal indicator mirrors,Auto-dimming Rear-View mirror,Compass,Driver door bin,Driver vanity mirror,Front reading lights,Garage door transmitter: HomeLink,Heated steering wheel,Illuminated entry,Leather Shift Knob,Outside temperature display,Overhead console,Passenger vanity mirror,Rear reading lights,Rear seat center armrest,Tachometer,Telescoping steering wheel,Tilt steering wheel,Trip computer,Front Bucket Seats,Heated & Cooled Front Bucket Seats,Heated front seats,Heated rear seats,Leather Appointed Seat Trim,Power passenger seat,Split folding rear seat,Ventilated front seats,Front Center Armrest w\/Storage,Passenger door bin,Alloy wheels,Wheels: 20 Machined Aluminum-Alloy,Rear window wiper,Speed-Sensitive Wipers,Variably intermittent wipers,4.677 Axle Ratio,[H02] PLATINUM TECHNOLOGY PACKAGE  -inc: Predictive Forward Collision Warning (PFCW)  Forward Emergency Braking (FEB)  Intelligent Cruise Control (ICC)  Power Panoramic Moonroof,[L92] FLOOR MATS & CARGO AREA PROTECTOR,[Z66] ACTIVATION DISCLAIMER,MAGNETIC BLACK METALLIC,BEIGE  LEATHER APPOINTED SEAT TRIM,[N94] INTERIOR ACCENT LIGHTING,[N92] ILLUMINATED KICK PLATES,[B92] SPLASH GUARDS,All Wheel Drive,Power Steering,ABS,4-Wheel Disc Brakes,Brake Assist,Aluminum Wheels,Tires - Front Performance,Tires - Rear Performance,Temporary Spare Tire,Heated Mirrors,Power Mirror(s),Integrated Turn Signal Mirrors,Rear Defrost,Privacy Glass,Intermittent Wipers,Variable Speed Intermittent Wipers,Rear Spoiler,Remote Trunk Release,Power Liftgate,Power Door Locks,Fog Lamps,Daytime Running Lights,Automatic Headlights,LED Headlights,AM\/FM Stereo,CD Player,Premium Sound System,Satellite Radio,MP3 Player,Steering Wheel Audio Controls,Auxiliary Audio Input,HD Radio,Requires Subscription,Bluetooth Connection,Power Driver Seat,Power Passenger Seat,Bucket Seats,Heated Front Seat(s),Seat Memory,Cooled Front Seat(s),Mirror Memory,Driver Adjustable Lumbar,Driver Adjustable Lumbar,Pass-Through Rear Seat,Heated Rear Seat(s),Rear Bench Seat,Adjustable Steering Wheel,Trip Computer,Power Windows,Leather Steering Wheel,Heated Steering Wheel,Keyless Entry,Power Door Locks,Keyless Start,Keyless Entry,Power Door Locks,Remote Trunk Release,Universal Garage Door Opener,Cruise Control,Climate Control,Multi-Zone A\/C,A\/C,Leather Seats,Driver Vanity Mirror,Passenger Vanity Mirror,Driver Illuminated Vanity Mirror,Passenger Illuminated Visor Mirror,Auto-Dimming Rearview Mirror,Smart Device Integration,Navigation System,Remote Engine Start,Keyless Start,Mirror Memory,Power Windows,Power Door Locks,Trip Computer,Security System,Immobilizer,Traction Control,Stability Control,Traction Control,Front Side Air Bag,Blind Spot Monitor,Aerial View Display System,Driver Monitoring,Cross-Traffic Alert,Front Collision Mitigation,Tire Pressure Monitor,Driver Air Bag,Passenger Air Bag,Front Head Air Bag,Rear Head Air Bag,Passenger Air Bag Sensor,Knee Air Bag,Child Safety Locks,Back-Up Camera","video_custom_flag":"0","video_title":"2015 Nissan Murano","video_local_title":"2015 Nissan Murano","video_frames":"0","video_image_url":"\/avavids\/1\/clients\/16724\/images\/FE61C6EF-DE4F-B373-5737-969BACE3D407_","video_pin_id":"0","video_tts_flag":"1","video_hvo_flag":"0","video_share":"1","video_default_flag":"0","video_imgsrc_urls":"https:\/\/content.homenetiol.com\/2000970\/2212155\/0x0\/3dfb6ce7ea4b4531880abb103d383339.jpg,https:\/\/content.homenetiol.com\/2000970\/2212155\/0x0\/01f8d04930774b7ab8c00ccc8e0ad251.jpg,https:\/\/content.homenetiol.com\/2000970\/2212155\/0x0\/f832c1101ae24ee2a8f340ee5cb09e46.jpg,https:\/\/content.homenetiol.com\/2000970\/2212155\/0x0\/1f832fbd153c49678927be05bd960012.jpg,https:\/\/content.homenetiol.com\/2000970\/2212155\/0x0\/9aad1adb1e5540739f07be2e79e3b581.jpg,https:\/\/content.homenetiol.com\/2000970\/2212155\/0x0\/18bd2b5171a546ccaf36f1859ab150a6.jpg,https:\/\/content.homenetiol.com\/2000970\/2212155\/0x0\/0fdab60761d54dd0a64714ff90e7e793.jpg,https:\/\/content.homenetiol.com\/2000970\/2212155\/0x0\/59a735ccc82e48fbae0983cad4ce2893.jpg,https:\/\/content.homenetiol.com\/2000970\/2212155\/0x0\/36454c776ade4905bc3a8f9ab74e7f8e.jpg,https:\/\/content.homenetiol.com\/2000970\/2212155\/0x0\/273f597d09f342c7a60e692d1fd06d90.jpg,https:\/\/content.homenetiol.com\/2000970\/2212155\/0x0\/43e7a404331048bb837cd74dcdf924e2.jpg,https:\/\/content.homenetiol.com\/2000970\/2212155\/0x0\/b171a88004f14b93b2b1cc472b277964.jpg,https:\/\/content.homenetiol.com\/2000970\/2212155\/0x0\/8b4d2b4603d34973beef4142b70e0f36.jpg,https:\/\/content.homenetiol.com\/2000970\/2212155\/0x0\/d76f0102236a4e68a8f611b5b5f49a1b.jpg,https:\/\/content.homenetiol.com\/2000970\/2212155\/0x0\/ca42d3d782e146b3837941b7767a59c8.jpg,https:\/\/content.homenetiol.com\/2000970\/2212155\/0x0\/a088e09c0da0430dae732d5c15920d7e.jpg,https:\/\/content.homenetiol.com\/2000970\/2212155\/0x0\/c8ff52954a0f447fa499b0da3fe55956.jpg,https:\/\/content.homenetiol.com\/2000970\/2212155\/0x0\/3b13a0e86b834a24934effa1545469c4.jpg,https:\/\/content.homenetiol.com\/2000970\/2212155\/0x0\/cba81fac868745f8846a34bf85c13738.jpg,https:\/\/content.homenetiol.com\/2000970\/2212155\/0x0\/9cb19d174dad4ad8beae174c95f0ad6d.jpg,https:\/\/content.homenetiol.com\/2000970\/2212155\/0x0\/cf7e32309f3f4074816e16bc725aaf64.jpg,https:\/\/content.homenetiol.com\/2000970\/2212155\/0x0\/5226fc0d33af48149f3864d3bbfabe73.jpg,https:\/\/content.homenetiol.com\/2000970\/2212155\/0x0\/3f9cf56405a54fb4be2d9a2c7e55759e.jpg,https:\/\/content.homenetiol.com\/2000970\/2212155\/0x0\/c638ab639e7c493ea3ee43fcb2f395f7.jpg,https:\/\/content.homenetiol.com\/2000970\/2212155\/0x0\/5c538175f86f45a1a2bdabf50139ccd1.jpg,https:\/\/content.homenetiol.com\/2000970\/2212155\/0x0\/b462ea5c82994b519e715742961af9b3.jpg,https:\/\/content.homenetiol.com\/2000970\/2212155\/0x0\/0151ede3d43e4b70935d24c9488010ba.jpg,https:\/\/content.homenetiol.com\/2000970\/2212155\/0x0\/2018a3e5cfbe483cbbbd117b7ac99d69.jpg,https:\/\/content.homenetiol.com\/2000970\/2212155\/0x0\/9e361f07b400484fa1c9af40abc97d28.jpg,https:\/\/content.homenetiol.com\/2000970\/2212155\/0x0\/d6fdff412d5746b4b2e428a34f62922e.jpg,https:\/\/content.homenetiol.com\/2000970\/2212155\/0x0\/fb77e51042934bf09c0d17b1df6aa1d6.jpg,https:\/\/content.homenetiol.com\/2000970\/2212155\/0x0\/c25a8ec52da54d8094f4b17de26982ad.jpg,https:\/\/content.homenetiol.com\/2000970\/2212155\/0x0\/92d5b757c07e4ac58afb05da5ffeac23.jpg,https:\/\/content.homenetiol.com\/2000970\/2212155\/0x0\/e0b141163ff642c7a5b3835124450cac.jpg,https:\/\/content.homenetiol.com\/2000970\/2212155\/0x0\/ef33adb9be2b44cd83a7a7f49277476b.jpg","video_thumbnail_url":"","video_rendering_flag":"0","video_error_rendering":"","video_view_cnt":"0","video_delete_flag":"0","video_delete_time":"","video_batch_proc":"1","video_meta_data":"","video_custom_default":"0","video_external_flv":"","video_external_wflv":"","video_external_iflv":"","video_custom_uploaded":"0","vehicle_client_id":"16724","vehicle_fkey":"4E384D12-94FC-6360-9843-89F4E25D35ED","vehicle_uid":"5N1AZ2MH2FN266777_PM128087A","vehicle_vin":"5N1AZ2MH2FN266777","vehicle_stock":"PM128087A","vehicle_year":"2015","vehicle_make":"Nissan","vehicle_model":"Murano","vehicle_trim":"Platinum","vehicle_price":"0","vehicle_mileage":"115471","vehicle_int_color":"Beige","vehicle_ext_color":"Magnetic Black Metallic","vehicle_body_type":"Sport Utility","vehicle_listing_type":"Used","vehicle_citympg":"21","vehicle_hwympg":"28","vehicle_combmpg":"","vehicle_cylinders":"6","vehicle_engine_size":"3.5 L","vehicle_trans":"Variable","vehicle_drivetrain":"AWD","vehicle_passengers":"5","vehicle_doors":"4","vehicle_certified":"0","vehicle_special":"0","vehicle_options":"Navigation System,11 Speakers,AM\/FM radio,CD player,Radio data system,Radio: AM\/FM\/CD Audio System w\/Navigation,Air Conditioning,Automatic temperature control,Front dual zone A\/C,Rear window defroster,Memory seat,Power driver seat,Power steering,Power windows,Remote keyless entry,Steering wheel memory,Steering wheel mounted audio controls,Four wheel independent suspension,Speed-sensing steering,Traction control,4-Wheel Disc Brakes,ABS brakes,Anti-whiplash front head restraints,Dual front impact airbags,Dual front side impact airbags,Front anti-roll bar,Knee airbag,Low tire pressure warning,Occupant sensing airbag,Overhead airbag,Rear anti-roll bar,Power Liftgate,Brake assist,Electronic Stability Control,Delay-off headlights,Front fog lights,Fully automatic headlights,Panic alarm,Security system,Speed control,Bumpers: body-color,Heated door mirrors,Power door mirrors,Roof rack: rails only,Spoiler,Turn signal indicator mirrors,Auto-dimming Rear-View mirror,Compass,Driver door bin,Driver vanity mirror,Front reading lights,Garage door transmitter: HomeLink,Heated steering wheel,Illuminated entry,Leather Shift Knob,Outside temperature display,Overhead console,Passenger vanity mirror,Rear reading lights,Rear seat center armrest,Tachometer,Telescoping steering wheel,Tilt steering wheel,Trip computer,Front Bucket Seats,Heated & Cooled Front Bucket Seats,Heated front seats,Heated rear seats,Leather Appointed Seat Trim,Power passenger seat,Split folding rear seat,Ventilated front seats,Front Center Armrest w\/Storage,Passenger door bin,Alloy wheels,Wheels: 20 Machined Aluminum-Alloy,Rear window wiper,Speed-Sensitive Wipers,Variably intermittent wipers,4.677 Axle Ratio,[H02] PLATINUM TECHNOLOGY PACKAGE  -inc: Predictive Forward Collision Warning (PFCW)  Forward Emergency Braking (FEB)  Intelligent Cruise Control (ICC)  Power Panoramic Moonroof,[L92] FLOOR MATS & CARGO AREA PROTECTOR,[Z66] ACTIVATION DISCLAIMER,MAGNETIC BLACK METALLIC,BEIGE  LEATHER APPOINTED SEAT TRIM,[N94] INTERIOR ACCENT LIGHTING,[N92] ILLUMINATED KICK PLATES,[B92] SPLASH GUARDS,All Wheel Drive,Power Steering,ABS,4-Wheel Disc Brakes,Brake Assist,Aluminum Wheels,Tires - Front Performance,Tires - Rear Performance,Temporary Spare Tire,Heated Mirrors,Power Mirror(s),Integrated Turn Signal Mirrors,Rear Defrost,Privacy Glass,Intermittent Wipers,Variable Speed Intermittent Wipers,Rear Spoiler,Remote Trunk Release,Power Liftgate,Power Door Locks,Fog Lamps,Daytime Running Lights,Automatic Headlights,LED Headlights,AM\/FM Stereo,CD Player,Premium Sound System,Satellite Radio,MP3 Player,Steering Wheel Audio Controls,Auxiliary Audio Input,HD Radio,Requires Subscription,Bluetooth Connection,Power Driver Seat,Power Passenger Seat,Bucket Seats,Heated Front Seat(s),Seat Memory,Cooled Front Seat(s),Mirror Memory,Driver Adjustable Lumbar,Driver Adjustable Lumbar,Pass-Through Rear Seat,Heated Rear Seat(s),Rear Bench Seat,Adjustable Steering Wheel,Trip Computer,Power Windows,Leather Steering Wheel,Heated Steering Wheel,Keyless Entry,Power Door Locks,Keyless Start,Keyless Entry,Power Door Locks,Remote Trunk Release,Universal Garage Door Opener,Cruise Control,Climate Control,Multi-Zone A\/C,A\/C,Leather Seats,Driver Vanity Mirror,Passenger Vanity Mirror,Driver Illuminated Vanity Mirror,Passenger Illuminated Visor Mirror,Auto-Dimming Rearview Mirror,Smart Device Integration,Navigation System,Remote Engine Start,Keyless Start,Mirror Memory,Power Windows,Power Door Locks,Trip Computer,Security System,Immobilizer,Traction Control,Stability Control,Traction Control,Front Side Air Bag,Blind Spot Monitor,Aerial View Display System,Driver Monitoring,Cross-Traffic Alert,Front Collision Mitigation,Tire Pressure Monitor,Driver Air Bag,Passenger Air Bag,Front Head Air Bag,Rear Head Air Bag,Passenger Air Bag Sensor,Knee Air Bag,Child Safety Locks,Back-Up Camera","vehicle_desc":"Magnetic Black Metallic 2015 Nissan Murano Platinum AWD CVT with Xtronic 3.5L V6 DOHC CVT with Xtronic, AWD.CVT with Xtronic, AWD, 11 Speakers, 4-Wheel Disc Brakes, 4.677 Axle Ratio, ABS brakes, Air Conditioning, Alloy wheels, AM\/FM radio, Anti-whiplash front head restraints, Auto-dimming Rear-View mirror, Automatic temperature control, Brake assist, Bumpers: body-color, CD player, Compass, Delay-off headlights, Driver door bin, Driver vanity mirror, Dual front impact airbags, Dual front side impact airbags, Electronic Stability Control, Four wheel independent suspension, Front anti-roll bar, Front Bucket Seats, Front Center Armrest w\/Storage, Front dual zone A\/C, Front fog lights, Front reading lights, Fully automatic headlights, Garage door transmitter: HomeLink, Heated & Cooled Front Bucket Seats, Heated door mirrors, Heated front seats, Heated rear seats, Heated steering wheel, Illuminated entry, Knee airbag, Leather Appointed Seat Trim, Leather Shift Knob, Low tire pressure warning, Memory seat, Navigation System, Occupant sensing airbag, Outside temperature display, Overhead airbag, Overhead console, Panic alarm, Passenger door bin, Passenger vanity mirror, Power door mirrors, Power driver seat, Power Liftgate, Power passenger seat, Power steering, Power windows, Radio data system, Radio: AM\/FM\/CD Audio System w\/Navigation, Rear anti-roll bar, Rear reading lights, Rear seat center armrest, Rear window defroster, Rear window wiper, Remote keyless entry, Roof rack: rails only, Security system, Speed control, Speed-sensing steering, Speed-Sensitive Wipers, Split folding rear seat, Spoiler, Steering wheel memory, Steering wheel mounted audio controls, Tachometer, Telescoping steering wheel, Tilt steering wheel, Traction control, Trip computer, Turn signal indicator mirrors, Variably intermittent wipers, Ventilated front seats, and Wheels: 20 Machined Aluminum-Alloy. 21\/28 City\/Highway MPGStop by Larry H. Miller Volkswagen Lakewood and check out the beautiful selection of new and pre-owned vehicles with amazing pricing and financing options. Located at 8303 W. Colfax Ave, Lakewood, CO 80214 (at the intersection of W. Colfax and Carr Street).","vehicle_chrome_style_id":"","vehicle_model_num":"23615","vehicle_stock_video":"0","vehicle_img_cnt":"0","veh_more_info":"","vehicle_create_date":"2024-03-04 01:20:06","vehicle_update_date":"2024-04-17 01:32:07","vehicle_md5":"0d924547521fba42b5d2ed7e80e8791d","vehicle_status":"U","vehicle_add":"0","vehicle_delete_flag":"0","vehicle_delete_time":""}
04:22:58 - Rest Call: /client/getAudioVideoConfig/9D9816D3-0F50-AE76-A2F1-1CC749AF7027?listing_type=Used&video_type=Auto&certified=0&vehicle_make=Nissan
04:22:58 - Curl Response - {"BG_MUSIC":"Concept7","THEME_BG_COLOR":"ffffff","THEME_ACCENTS_COLOR":"047ec1","THEME_FONT_COLOR":"000000","THEME_FONT":"Din","THEME_STYLE":"Ren","BG_VOL_LEVEL":"0.25","AUDIO_VO":"VO","VIDEO_SIZE":"HD-XLARGE","CUSTOM_INTRO":"","CUSTOM_OUTRO":"","THEME_KEY":"29_0_Auto_Default_0_ALL","THEME_RANK":"2","THEME_CONFIG":"RESELLER_CONFIG","OLD_BG_STYLE":"0"}
04:22:58 - Return from CheckProfileVal function::0 - DISABLE_PRICE - YES
04:22:58 - Return from CheckProfileVal function::0 - DISABLE_MILEAGE - YES
04:22:58 - Return from CheckProfileVal function::0 - DISABLE_CARSTORY - YES
04:22:58 - Config Information for FE61C6EF-DE4F-B373-5737-969BACE3D407 - Width:960 - CPO:0/0 - CF:0 - CS:0  - Intro:1 - Outro:1 - Ovleray:2 -THEME:29_0_Auto_Default_0_ALL
04:22:58 - https://content.homenetiol.com/2000970/2212155/0x0/3dfb6ce7ea4b4531880abb103d383339.jpg /var/www/html/clients/16724/images/FE61C6EF-DE4F-B373-5737-969BACE3D407_1.jpg
04:22:58 - https://content.homenetiol.com/2000970/2212155/0x0/01f8d04930774b7ab8c00ccc8e0ad251.jpg /var/www/html/clients/16724/images/FE61C6EF-DE4F-B373-5737-969BACE3D407_2.jpg
04:22:58 - https://content.homenetiol.com/2000970/2212155/0x0/f832c1101ae24ee2a8f340ee5cb09e46.jpg /var/www/html/clients/16724/images/FE61C6EF-DE4F-B373-5737-969BACE3D407_3.jpg
04:22:58 - https://content.homenetiol.com/2000970/2212155/0x0/1f832fbd153c49678927be05bd960012.jpg /var/www/html/clients/16724/images/FE61C6EF-DE4F-B373-5737-969BACE3D407_4.jpg
04:22:58 - https://content.homenetiol.com/2000970/2212155/0x0/9aad1adb1e5540739f07be2e79e3b581.jpg /var/www/html/clients/16724/images/FE61C6EF-DE4F-B373-5737-969BACE3D407_5.jpg
04:22:58 - https://content.homenetiol.com/2000970/2212155/0x0/18bd2b5171a546ccaf36f1859ab150a6.jpg /var/www/html/clients/16724/images/FE61C6EF-DE4F-B373-5737-969BACE3D407_6.jpg
04:22:58 - https://content.homenetiol.com/2000970/2212155/0x0/0fdab60761d54dd0a64714ff90e7e793.jpg /var/www/html/clients/16724/images/FE61C6EF-DE4F-B373-5737-969BACE3D407_7.jpg
04:22:58 - https://content.homenetiol.com/2000970/2212155/0x0/59a735ccc82e48fbae0983cad4ce2893.jpg /var/www/html/clients/16724/images/FE61C6EF-DE4F-B373-5737-969BACE3D407_8.jpg
04:22:58 - https://content.homenetiol.com/2000970/2212155/0x0/36454c776ade4905bc3a8f9ab74e7f8e.jpg /var/www/html/clients/16724/images/FE61C6EF-DE4F-B373-5737-969BACE3D407_9.jpg
04:22:58 - https://content.homenetiol.com/2000970/2212155/0x0/273f597d09f342c7a60e692d1fd06d90.jpg /var/www/html/clients/16724/images/FE61C6EF-DE4F-B373-5737-969BACE3D407_10.jpg
04:22:58 - https://content.homenetiol.com/2000970/2212155/0x0/43e7a404331048bb837cd74dcdf924e2.jpg /var/www/html/clients/16724/images/FE61C6EF-DE4F-B373-5737-969BACE3D407_11.jpg
04:22:58 - https://content.homenetiol.com/2000970/2212155/0x0/b171a88004f14b93b2b1cc472b277964.jpg /var/www/html/clients/16724/images/FE61C6EF-DE4F-B373-5737-969BACE3D407_12.jpg
04:22:58 - https://content.homenetiol.com/2000970/2212155/0x0/8b4d2b4603d34973beef4142b70e0f36.jpg /var/www/html/clients/16724/images/FE61C6EF-DE4F-B373-5737-969BACE3D407_13.jpg
04:22:58 - https://content.homenetiol.com/2000970/2212155/0x0/d76f0102236a4e68a8f611b5b5f49a1b.jpg /var/www/html/clients/16724/images/FE61C6EF-DE4F-B373-5737-969BACE3D407_14.jpg
04:22:58 - https://content.homenetiol.com/2000970/2212155/0x0/ca42d3d782e146b3837941b7767a59c8.jpg /var/www/html/clients/16724/images/FE61C6EF-DE4F-B373-5737-969BACE3D407_15.jpg
04:22:58 - https://content.homenetiol.com/2000970/2212155/0x0/a088e09c0da0430dae732d5c15920d7e.jpg /var/www/html/clients/16724/images/FE61C6EF-DE4F-B373-5737-969BACE3D407_16.jpg
04:22:58 - https://content.homenetiol.com/2000970/2212155/0x0/c8ff52954a0f447fa499b0da3fe55956.jpg /var/www/html/clients/16724/images/FE61C6EF-DE4F-B373-5737-969BACE3D407_17.jpg
04:22:58 - https://content.homenetiol.com/2000970/2212155/0x0/3b13a0e86b834a24934effa1545469c4.jpg /var/www/html/clients/16724/images/FE61C6EF-DE4F-B373-5737-969BACE3D407_18.jpg
04:22:58 - https://content.homenetiol.com/2000970/2212155/0x0/cba81fac868745f8846a34bf85c13738.jpg /var/www/html/clients/16724/images/FE61C6EF-DE4F-B373-5737-969BACE3D407_19.jpg
04:22:58 - https://content.homenetiol.com/2000970/2212155/0x0/9cb19d174dad4ad8beae174c95f0ad6d.jpg /var/www/html/clients/16724/images/FE61C6EF-DE4F-B373-5737-969BACE3D407_20.jpg
04:22:58 - Image Count 20
04:22:58 - Setting Female English VO Constants | 0 | 0
04:22:58 - ====HVO Value:1, Audio Value:0===
04:22:58 - Return from CheckProfileVal function::0 - AUDIO_INTRO - 
04:22:58 - Return from CheckProfileVal function::0 - AUDIO_OUTRO - 
04:22:58 - ================Process HVO=========== 
 1
04:22:58 - ================CLIENT SELECT TTS VM VALUE=========== 
 2
04:22:58 - 2 - 2 - /var/app/video_pre_processor/assets/hvo/
04:22:58 - Setting Female English VO Constants | 0 | 2
04:22:58 - HVO Soap Call Method - AudoListWMIE 

04:22:58 - Getting Text For Audio Files
04:22:58 - HVO Soap Call Method - AudoListTWMIE 

04:22:58 - Getting Text For Audio Files emotionalFile 2
04:22:58 - HVO Soap Call Method - GetTTScripts 

04:22:58 - Getting Text For Audio Files introEmotionalFile 25
04:22:58 - HVO Soap Call Method - GetTTScripts 

04:22:58 - Getting Text For Audio Files scriptFile 23
04:22:59 - HVO Soap Call Method - GetTTScripts 

04:22:59 - ================TTS VM VALUE=========== 
 2
04:22:59 - ================GetVOFiles=========== 
 {"OptionFiles":[{"option_str":"* General Options Intro","option_file":"http:\/\/hvo.flickfusion.net\/audio\/options\/options_fe_audio_file_55.mp3","option_saftey":1},{"option_str":"Back-Up Camera","option_file":"http:\/\/hvo.flickfusion.net\/audio\/options\/options_fe_audio_file_337.mp3","option_saftey":1},{"option_str":"Traction Control","option_file":"http:\/\/hvo.flickfusion.net\/audio\/options\/options_fe_audio_file_18.mp3","option_saftey":2},{"option_str":"Power Liftgate","option_file":"http:\/\/hvo.flickfusion.net\/audio\/options\/options_fe_audio_file_238.mp3","option_saftey":1},{"option_str":"Power Passenger Seat","option_file":"http:\/\/hvo.flickfusion.net\/audio\/options\/options_fe_audio_file_242.mp3","option_saftey":1},{"option_str":"All Wheel Drive","option_file":"http:\/\/hvo.flickfusion.net\/audio\/options\/options_fe_audio_file_82.mp3","option_saftey":1},{"option_str":"ANTI-LOCK BRAKING SYSTEM","option_file":"http:\/\/hvo.flickfusion.net\/audio\/options\/options_fe_audio_file_70.mp3","option_saftey":1},{"option_str":"Navigation System","option_file":"http:\/\/hvo.flickfusion.net\/audio\/options\/options_fe_audio_file_219.mp3","option_saftey":1},{"option_str":"LED Headlights","option_file":"http:\/\/hvo.flickfusion.net\/audio\/options\/options_fe_audio_file_1349.mp3","option_saftey":1},{"option_str":"Steering wheel audio controls","option_file":"http:\/\/hvo.flickfusion.net\/audio\/options\/options_fe_audio_file_296.mp3","option_saftey":1},{"option_str":"Power Passenger Seat","option_file":"http:\/\/hvo.flickfusion.net\/audio\/options\/options_fe_audio_file_242.mp3","option_saftey":1},{"option_str":"Keyless Entry","option_file":"http:\/\/hvo.flickfusion.net\/audio\/options\/options_fe_audio_file_202.mp3","option_saftey":1},{"option_str":"Keyless Entry","option_file":"http:\/\/hvo.flickfusion.net\/audio\/options\/options_fe_audio_file_202.mp3","option_saftey":1},{"option_str":"Navigation System","option_file":"http:\/\/hvo.flickfusion.net\/audio\/options\/options_fe_audio_file_219.mp3","option_saftey":1},{"option_str":"Remote Engine Start","option_file":"http:\/\/hvo.flickfusion.net\/audio\/options\/options_fe_audio_file_272.mp3","option_saftey":1},{"option_str":"Power Liftgate","option_file":"http:\/\/hvo.flickfusion.net\/audio\/options\/options_fe_audio_file_238.mp3","option_saftey":1},{"option_str":"Traction Control","option_file":"http:\/\/hvo.flickfusion.net\/audio\/options\/options_fe_audio_file_18.mp3","option_saftey":2},{"option_str":"Stability Control","option_file":"http:\/\/hvo.flickfusion.net\/audio\/options\/options_fe_audio_file_17.mp3","option_saftey":2},{"option_str":"Traction Control","option_file":"http:\/\/hvo.flickfusion.net\/audio\/options\/options_fe_audio_file_18.mp3","option_saftey":2},{"option_str":"Dual Air Bags","option_file":"http:\/\/hvo.flickfusion.net\/audio\/options\/options_fe_audio_file_154.mp3","option_saftey":2},{"option_str":"air conditioning","option_file":"http:\/\/hvo.flickfusion.net\/audio\/options\/options_fe_audio_file_1419.mp3","option_saftey":1},{"option_str":"Bluetooth","option_file":"http:\/\/hvo.flickfusion.net\/audio\/options\/options_fe_audio_file_846.mp3","option_saftey":1},{"option_str":"Leather Wrapped Steering Wheel","option_file":"http:\/\/hvo.flickfusion.net\/audio\/options\/options_fe_audio_file_207.mp3","option_saftey":1},{"option_str":"Adjustable Steering Wheel","option_file":"http:\/\/hvo.flickfusion.net\/audio\/options\/options_fe_audio_file_74.mp3","option_saftey":1},{"option_str":"Power Steering","option_file":"http:\/\/hvo.flickfusion.net\/audio\/options\/options_fe_audio_file_244.mp3","option_saftey":1},{"option_str":"Power Steering","option_file":"http:\/\/hvo.flickfusion.net\/audio\/options\/options_fe_audio_file_244.mp3","option_saftey":1},{"option_str":"Driver Air Bag","option_file":"http:\/\/hvo.flickfusion.net\/audio\/options\/options_fe_audio_file_148.mp3","option_saftey":1},{"option_str":"Alloy Wheels","option_file":"http:\/\/hvo.flickfusion.net\/audio\/options\/options_fe_audio_file_68.mp3","option_saftey":1},{"option_str":"heated rear seats","option_file":"http:\/\/hvo.flickfusion.net\/audio\/options\/options_fe_audio_file_1384.mp3","option_saftey":1},{"option_str":"4-Wheel Disc Brakes","option_file":"http:\/\/hvo.flickfusion.net\/audio\/options\/options_fe_audio_file_63.mp3","option_saftey":1},{"option_str":"4-Wheel Disc Brakes","option_file":"http:\/\/hvo.flickfusion.net\/audio\/options\/options_fe_audio_file_63.mp3","option_saftey":1},{"option_str":"Aluminum Wheels","option_file":"http:\/\/hvo.flickfusion.net\/audio\/options\/options_fe_audio_file_83.mp3","option_saftey":1},{"option_str":"Keyless Start","option_file":"http:\/\/hvo.flickfusion.net\/audio\/options\/options_fe_audio_file_203.mp3","option_saftey":1},{"option_str":"Keyless Start","option_file":"http:\/\/hvo.flickfusion.net\/audio\/options\/options_fe_audio_file_203.mp3","option_saftey":1},{"option_str":"Cruise Control","option_file":"http:\/\/hvo.flickfusion.net\/audio\/options\/options_fe_audio_file_134.mp3","option_saftey":1},{"option_str":"AUTO-DIMMING REARVIEW MIRROR (PPO)","option_file":"http:\/\/hvo.flickfusion.net\/audio\/options\/options_fe_audio_file_436.mp3","option_saftey":1},{"option_str":"AM\/FM STEREO RADIO","option_file":"http:\/\/hvo.flickfusion.net\/audio\/options\/options_fe_audio_file_69.mp3","option_saftey":1},{"option_str":"Rear Defrost","option_file":"http:\/\/hvo.flickfusion.net\/audio\/options\/options_fe_audio_file_259.mp3","option_saftey":1},{"option_str":"Premium Sound System","option_file":"http:\/\/hvo.flickfusion.net\/audio\/options\/options_fe_audio_file_248.mp3","option_saftey":1},{"option_str":"Universal Garage Door Opener","option_file":"http:\/\/hvo.flickfusion.net\/audio\/options\/options_fe_audio_file_323.mp3","option_saftey":1},{"option_str":"Center Arm Rest","option_file":"http:\/\/hvo.flickfusion.net\/audio\/options\/options_fe_audio_file_119.mp3","option_saftey":1},{"option_str":"Climate Control","option_file":"http:\/\/hvo.flickfusion.net\/audio\/options\/options_fe_audio_file_126.mp3","option_saftey":1},{"option_str":"Memory Seat","option_file":"","option_saftey":1},{"option_str":"Trip Computer","option_file":"http:\/\/hvo.flickfusion.net\/audio\/options\/options_fe_audio_file_321.mp3","option_saftey":1},{"option_str":"Power Windows","option_file":"http:\/\/hvo.flickfusion.net\/audio\/options\/options_fe_audio_file_2.mp3","option_saftey":1},{"option_str":"CD Player","option_file":"http:\/\/hvo.flickfusion.net\/audio\/options\/options_fe_audio_file_111.mp3","option_saftey":1},{"option_str":"Passenger Air Bag","option_file":"http:\/\/hvo.flickfusion.net\/audio\/options\/options_fe_audio_file_228.mp3","option_saftey":1},{"option_str":"Power Door Locks","option_file":"http:\/\/hvo.flickfusion.net\/audio\/options\/options_fe_audio_file_234.mp3","option_saftey":1},{"option_str":"Power Door Locks","option_file":"http:\/\/hvo.flickfusion.net\/audio\/options\/options_fe_audio_file_234.mp3","option_saftey":1},{"option_str":"Heated Front Seats","option_file":"http:\/\/hvo.flickfusion.net\/audio\/options\/options_fe_audio_file_193.mp3","option_saftey":1},{"option_str":"Trip Computer","option_file":"http:\/\/hvo.flickfusion.net\/audio\/options\/options_fe_audio_file_321.mp3","option_saftey":1},{"option_str":"Child Safety Locks","option_file":"http:\/\/hvo.flickfusion.net\/audio\/options\/options_fe_audio_file_122.mp3","option_saftey":1},{"option_str":"HEATED STEERING WHEEL ","option_file":"http:\/\/hvo.flickfusion.net\/audio\/options\/options_fe_audio_file_839.mp3","option_saftey":1},{"option_str":"Compass","option_file":"http:\/\/hvo.flickfusion.net\/audio\/options\/options_fe_audio_file_133.mp3","option_saftey":1},{"option_str":"Power Windows","option_file":"http:\/\/hvo.flickfusion.net\/audio\/options\/options_fe_audio_file_2.mp3","option_saftey":1},{"option_str":"SECURITY SYSTEM","option_file":"http:\/\/hvo.flickfusion.net\/audio\/options\/options_fe_audio_file_996.mp3","option_saftey":1},{"option_str":"FOG LIGHTS","option_file":"http:\/\/hvo.flickfusion.net\/audio\/options\/options_fe_audio_file_167.mp3","option_saftey":1},{"option_str":"Electronic Stability Control","option_file":"http:\/\/hvo.flickfusion.net\/audio\/options\/options_fe_audio_file_162.mp3","option_saftey":1},{"option_str":"Rear Window Defroster","option_file":"http:\/\/hvo.flickfusion.net\/audio\/options\/options_fe_audio_file_269.mp3","option_saftey":1},{"option_str":"Fog Lamps","option_file":"http:\/\/hvo.flickfusion.net\/audio\/options\/options_fe_audio_file_171.mp3","option_saftey":1},{"option_str":"Power Door Locks","option_file":"http:\/\/hvo.flickfusion.net\/audio\/options\/options_fe_audio_file_234.mp3","option_saftey":1},{"option_str":"Bucket Seats","option_file":"http:\/\/hvo.flickfusion.net\/audio\/options\/options_fe_audio_file_107.mp3","option_saftey":1},{"option_str":"MP3 Player","option_file":"http:\/\/hvo.flickfusion.net\/audio\/options\/options_fe_audio_file_211.mp3","option_saftey":1},{"option_str":"Power Windows","option_file":"http:\/\/hvo.flickfusion.net\/audio\/options\/options_fe_audio_file_2.mp3","option_saftey":1},{"option_str":"Power Door Locks","option_file":"http:\/\/hvo.flickfusion.net\/audio\/options\/options_fe_audio_file_234.mp3","option_saftey":1},{"option_str":"CD Player","option_file":"http:\/\/hvo.flickfusion.net\/audio\/options\/options_fe_audio_file_111.mp3","option_saftey":1},{"option_str":"Trip Computer","option_file":"http:\/\/hvo.flickfusion.net\/audio\/options\/options_fe_audio_file_321.mp3","option_saftey":1},{"option_str":"HEATED STEERING WHEEL ","option_file":"http:\/\/hvo.flickfusion.net\/audio\/options\/options_fe_audio_file_839.mp3","option_saftey":1},{"option_str":"SECURITY SYSTEM","option_file":"http:\/\/hvo.flickfusion.net\/audio\/options\/options_fe_audio_file_996.mp3","option_saftey":1},{"option_str":"HD Radio","option_file":"http:\/\/hvo.flickfusion.net\/audio\/options\/options_fe_audio_file_452.mp3","option_saftey":1},{"option_str":"Remote Keyless Entry","option_file":"http:\/\/hvo.flickfusion.net\/audio\/options\/options_fe_audio_file_273.mp3","option_saftey":1},{"option_str":"Overhead console","option_file":"http:\/\/hvo.flickfusion.net\/audio\/options\/options_fe_audio_file_611.mp3","option_saftey":1},{"option_str":"TACHOMETER","option_file":"http:\/\/hvo.flickfusion.net\/audio\/options\/options_fe_audio_file_299.mp3","option_saftey":1},{"option_str":"Seat Memory","option_file":"http:\/\/hvo.flickfusion.net\/audio\/options\/options_fe_audio_file_280.mp3","option_saftey":1},{"option_str":"Brake Assist","option_file":"http:\/\/hvo.flickfusion.net\/audio\/options\/options_fe_audio_file_104.mp3","option_saftey":1},{"option_str":"Rear Head Air Bag","option_file":"http:\/\/hvo.flickfusion.net\/audio\/options\/options_fe_audio_file_261.mp3","option_saftey":1},{"option_str":"Panic alarm","option_file":"http:\/\/hvo.flickfusion.net\/audio\/options\/options_fe_audio_file_966.mp3","option_saftey":1},{"option_str":"Auxiliary Audio Input","option_file":"http:\/\/hvo.flickfusion.net\/audio\/options\/options_fe_audio_file_95.mp3","option_saftey":1},{"option_str":"Daytime Running Lights","option_file":"http:\/\/hvo.flickfusion.net\/audio\/options\/options_fe_audio_file_142.mp3","option_saftey":1},{"option_str":"Satellite Radio","option_file":"http:\/\/hvo.flickfusion.net\/audio\/options\/options_fe_audio_file_279.mp3","option_saftey":1},{"option_str":"A\/C","option_file":"http:\/\/hvo.flickfusion.net\/audio\/options\/options_fe_audio_file_67.mp3","option_saftey":1},{"option_str":"Leather Seats","option_file":"http:\/\/hvo.flickfusion.net\/audio\/options\/options_fe_audio_file_206.mp3","option_saftey":1},{"option_str":"Brake Assist","option_file":"http:\/\/hvo.flickfusion.net\/audio\/options\/options_fe_audio_file_104.mp3","option_saftey":1},{"option_str":"Front Reading Lamps","option_file":"http:\/\/hvo.flickfusion.net\/audio\/options\/options_fe_audio_file_178.mp3","option_saftey":1},{"option_str":"Remote Trunk Release","option_file":"http:\/\/hvo.flickfusion.net\/audio\/options\/options_fe_audio_file_275.mp3","option_saftey":1},{"option_str":"Rear Window Wiper","option_file":"http:\/\/hvo.flickfusion.net\/audio\/options\/options_fe_audio_file_270.mp3","option_saftey":1},{"option_str":"Driver Vanity Mirror","option_file":"http:\/\/hvo.flickfusion.net\/audio\/options\/options_fe_audio_file_152.mp3","option_saftey":1},{"option_str":"Power Driver Seat","option_file":"http:\/\/hvo.flickfusion.net\/audio\/options\/options_fe_audio_file_237.mp3","option_saftey":1},{"option_str":"TILT STEERING WHEEL","option_file":"http:\/\/hvo.flickfusion.net\/audio\/options\/options_fe_audio_file_300.mp3","option_saftey":1},{"option_str":"Remote Trunk Release","option_file":"http:\/\/hvo.flickfusion.net\/audio\/options\/options_fe_audio_file_275.mp3","option_saftey":1},{"option_str":"FRONT BUCKET SEATS","option_file":"http:\/\/hvo.flickfusion.net\/audio\/options\/options_fe_audio_file_168.mp3","option_saftey":1},{"option_str":"Driver Illuminated Vanity Mirror","option_file":"http:\/\/hvo.flickfusion.net\/audio\/options\/options_fe_audio_file_149.mp3","option_saftey":1},{"option_str":"Passenger Illuminated Visor Mirror","option_file":"http:\/\/hvo.flickfusion.net\/audio\/options\/options_fe_audio_file_230.mp3","option_saftey":1},{"option_str":"Power Driver Seat","option_file":"http:\/\/hvo.flickfusion.net\/audio\/options\/options_fe_audio_file_237.mp3","option_saftey":1},{"option_str":"VENTILATED FRONT SEATS","option_file":"http:\/\/hvo.flickfusion.net\/audio\/options\/options_fe_audio_file_566.mp3","option_saftey":1},{"option_str":"Driver Vanity Mirror","option_file":"http:\/\/hvo.flickfusion.net\/audio\/options\/options_fe_audio_file_152.mp3","option_saftey":1},{"option_str":"Passenger Vanity Mirror","option_file":"http:\/\/hvo.flickfusion.net\/audio\/options\/options_fe_audio_file_233.mp3","option_saftey":1},{"option_str":"Privacy Glass","option_file":"http:\/\/hvo.flickfusion.net\/audio\/options\/options_fe_audio_file_249.mp3","option_saftey":1},{"option_str":"Passenger Vanity Mirror","option_file":"http:\/\/hvo.flickfusion.net\/audio\/options\/options_fe_audio_file_233.mp3","option_saftey":1},{"option_str":"SPLASH GUARDS ","option_file":"http:\/\/hvo.flickfusion.net\/audio\/options\/options_fe_audio_file_364.mp3","option_saftey":1},{"option_str":"Pass-Through Rear Seat","option_file":"http:\/\/hvo.flickfusion.net\/audio\/options\/options_fe_audio_file_227.mp3","option_saftey":1},{"option_str":"SPEED CONTROL","option_file":"http:\/\/hvo.flickfusion.net\/audio\/options\/options_fe_audio_file_375.mp3","option_saftey":1},{"option_str":"Heated Mirrors","option_file":"http:\/\/hvo.flickfusion.net\/audio\/options\/options_fe_audio_file_7.mp3","option_saftey":1},{"option_str":"Mirror Memory","option_file":"http:\/\/hvo.flickfusion.net\/audio\/options\/options_fe_audio_file_214.mp3","option_saftey":1},{"option_str":"Integrated Turn Signal Mirrors","option_file":"http:\/\/hvo.flickfusion.net\/audio\/options\/options_fe_audio_file_198.mp3","option_saftey":1},{"option_str":"Mirror Memory","option_file":"http:\/\/hvo.flickfusion.net\/audio\/options\/options_fe_audio_file_214.mp3","option_saftey":1},{"option_str":"Tires - Rear Performance","option_file":"http:\/\/hvo.flickfusion.net\/audio\/options\/options_fe_audio_file_316.mp3","option_saftey":1},{"option_str":"Rear Spoiler","option_file":"http:\/\/hvo.flickfusion.net\/audio\/options\/options_fe_audio_file_10.mp3","option_saftey":1},{"option_str":"Tire Pressure Monitor","option_file":"http:\/\/hvo.flickfusion.net\/audio\/options\/options_fe_audio_file_36.mp3","option_saftey":2},{"option_str":"Tires - Front Performance","option_file":"http:\/\/hvo.flickfusion.net\/audio\/options\/options_fe_audio_file_311.mp3","option_saftey":1},{"option_str":"Rear Spoiler","option_file":"http:\/\/hvo.flickfusion.net\/audio\/options\/options_fe_audio_file_10.mp3","option_saftey":1},{"option_str":" 4-PIECE FLOOR MAT SET ","option_file":"http:\/\/hvo.flickfusion.net\/audio\/options\/options_fe_audio_file_357.mp3","option_saftey":1},{"option_str":"LOW TIRE PRESSURE WARNING","option_file":"http:\/\/hvo.flickfusion.net\/audio\/options\/options_fe_audio_file_689.mp3","option_saftey":1},{"option_str":"ILLUMINATED ENTRY","option_file":"","option_saftey":1},{"option_str":" 4-PIECE FLOOR MAT SET ","option_file":"http:\/\/hvo.flickfusion.net\/audio\/options\/options_fe_audio_file_357.mp3","option_saftey":1},{"option_str":"LEATHER SHIFT KNOB","option_file":"http:\/\/hvo.flickfusion.net\/audio\/options\/options_fe_audio_file_688.mp3","option_saftey":1},{"option_str":"Variable Speed Intermittent Wipers","option_file":"http:\/\/hvo.flickfusion.net\/audio\/options\/options_fe_audio_file_325.mp3","option_saftey":1},{"option_str":"Blind Spot Monitor","option_file":"http:\/\/hvo.flickfusion.net\/audio\/options\/options_fe_audio_file_1428.mp3","option_saftey":1},{"option_str":"REAR BENCH SEAT","option_file":"http:\/\/hvo.flickfusion.net\/audio\/options\/options_fe_audio_file_693.mp3","option_saftey":1},{"option_str":"RADIO DATA SYSTEM","option_file":"http:\/\/hvo.flickfusion.net\/audio\/options\/options_fe_audio_file_692.mp3","option_saftey":1},{"option_str":"Smart Device Integration","option_file":"http:\/\/hvo.flickfusion.net\/audio\/options\/options_fe_audio_file_1480.mp3","option_saftey":1},{"option_str":"* Safety Options Intro","option_file":"http:\/\/hvo.flickfusion.net\/audio\/options\/options_fe_audio_file_19.mp3","option_saftey":2}],"yearFile":"http:\/\/hvo.flickfusion.net\/audio\/year\/year_fe_audio_file_32.mp3","makeFile":"http:\/\/hvo.flickfusion.net\/audio\/makes\/make_name_fe_audio_file_37.mp3","modelFile":"http:\/\/hvo.flickfusion.net\/audio\/mdlnames\/model_name_fe_audio_file_363.mp3","modelHighlightFile":"http:\/\/hvo.flickfusion.net\/audio\/models\/model_fe_audio_file_363.mp3","styleFile":"","bodytypeFile":"","transFile":"http:\/\/hvo.flickfusion.net\/audio\/domain_transmission\/transmission_fe_audio_file_4.mp3","engineFile":"http:\/\/hvo.flickfusion.net\/audio\/domain_enginesize\/enginesize_fe_audio_file_7.mp3","cylindersFile":"http:\/\/hvo.flickfusion.net\/audio\/domain_cylinders\/cylinder_fe_audio_file_5.mp3","driveTrainFile":"http:\/\/hvo.flickfusion.net\/audio\/domain_drivetrain\/drivetrain_fe_audio_file_4.mp3","priceFile":"","mileageFile":"http:\/\/hvo.flickfusion.net\/audio\/mileage\/miles_fe_audio_file_26.mp3","carfaxFile":"","emotionalFile":"http:\/\/hvo.flickfusion.net\/audio\/emotional\/emotional_fe_audio_file_2.mp3","introEmotionalFile":"http:\/\/hvo.flickfusion.net\/audio\/emotional\/ie_fe_audio_file_25.mp3","scriptFile":"http:\/\/hvo.flickfusion.net\/audio\/domain_scripts\/script_fe_audio_file_23.mp3","statusCode":"1","statusMessage":"Audio Files Sent"}
04:22:59 - /var/www/html/clients/16724/audio/FE61C6EF-DE4F-B373-5737-969BACE3D407.wav
04:22:59 - ================Process HVO SOAP CALL CMD=========== 
 /usr/bin/sox
 STATUS CODE 
 1
04:22:59 - /var/app/video_pre_processor/assets/hvo/ie_fe_audio_file_25.wav PlayTime:1.93
04:22:59 - /var/app/video_pre_processor/assets/hvo/year_fe_audio_file_32.wav PlayTime:1.52
04:22:59 - /var/app/video_pre_processor/assets/hvo/model_name_fe_audio_file_363.wav PlayTime:0.89
04:22:59 - /var/app/video_pre_processor/assets/hvo/model_fe_audio_file_363.wav PlayTime:14.13
04:22:59 - Skipping VTT for BODY - bodytypeFile
04:22:59 - Skipping VTT for PRICE - priceFile
04:22:59 - KM Check : 115471 | 0
04:22:59 - /var/app/video_pre_processor/assets/hvo/miles_fe_audio_file_26.wav PlayTime:3.4
04:22:59 - Curl Response - {"exterior":["Power Door Mirrors","Roof Rack: Rails Only","Speed-sensitive Wipers","Garage Door Transmitter: Homelink","Abs Brakes","Front Fog Lights","Blind Spot Monitor","All Wheel Drive","Heated Mirrors","Alloy Wheels","Aluminum Wheels","Remote Engine Start","Rear Spoiler","Power Liftgate","Power Mirrors","4-wheel Independent Suspension","Brake Assist","Stability Control","Intermittent Wipers","Tire Pressure Monitor","Daytime Running Lights","Remote Keyless Entry","Abs Brakes (rear Only)","Fog Lights","Body-color Bumpers","Fog Lamps","Led Headlights","Remote Trunk Release","4-wheel Disc Brakes","Roof Rack","Mirror Memory","Headlights-auto-off","Privacy Glass","Outside Temperature Gauge","Speed Control","Anti-roll Bars","Integrated Turn Signal Mirrors","Auto Headlight On\/off","Driver Illuminated Vanity Mirror","Electronic Stability Control","Traction Control","Variable Speed Intermittent Wipers","Rear Window Defroster","Rear Window Wiper"],"interior":["Illuminated Entry","Split Folding Rear Seat","Speed-sensing Steering","Automatic Temperature Control","Rear Seat Center Armrest","Knee Airbag","Front Center Armrest W\/storage","Anti-whiplash Front Head Restraints","11 Speakers","Dual Front Side Impact Airbags","Occupant Sensing Airbag","Navigation System","Back-up Camera","Memorized Settings, Includes Steering Wheel","Heated Steering Wheel","Smart Device Integration","Keyless Entry","Heated Rear Seat","Hd Radio","Ventilated Front Seats","Satellite Radio","Auxiliary Audio Input","Premium Sound System","Heated Front Seats","Steering Wheel Audio Controls","Keyless Start","Cooled Seats","Mp3 Player","Security System","Auto-dimming Rearview Mirror (ppo)","Automatic Climate Control","Cruise Control","Trip Computer","Rear Seats, Split Folding","Child Safety Locks","Rear Seats, Center Armrest","Multi-function Remote, Keyless\/illuminated Entry","Power Door Locks","Power Windows","Power Steering","Airbags - Passenger - Occupant Sensing Deactivation","Leather Shift Knob","Leather Wrapped Steering Wheel","Power Passenger Seat","Bucket Seats","Seat Memory","Adjustable Steering Wheel","Climate Control","Overhead Console","Rear Bench Seat","Panic Alarm","Rear Defrost","Door Pockets","Pass-through Rear Seat","Telescopic Steering Wheel","Driver Air Bag","Passenger Air Bag","Rear Head Air Bag","Tilt Steering Wheel","Passenger Illuminated Visor Mirror","Driver Vanity Mirror","Passenger Vanity Mirror","Dual Front Air Bags","Dual Zone A\/c","Leather Seats","Power Driver Seat","Universal Garage Door Opener","Front Bucket Seats","Low Tire Pressure Warning","Cd Player","Front Reading Lamps","A\/c","Compass","Radio Data System","Am\/fm Stereo Radio","Rear Defroster","Tachometer","Rear Reading Lamps"]}
04:22:59 - ============={"exterior":["Power Door Mirrors","Roof Rack: Rails Only","Speed-sensitive Wipers","Garage Door Transmitter: Homelink","Abs Brakes","Front Fog Lights","Blind Spot Monitor","All Wheel Drive","Heated Mirrors","Alloy Wheels","Aluminum Wheels","Remote Engine Start","Rear Spoiler","Power Liftgate","Power Mirrors","4-wheel Independent Suspension","Brake Assist","Stability Control","Intermittent Wipers","Tire Pressure Monitor","Daytime Running Lights","Remote Keyless Entry","Abs Brakes (rear Only)","Fog Lights","Body-color Bumpers","Fog Lamps","Led Headlights","Remote Trunk Release","4-wheel Disc Brakes","Roof Rack","Mirror Memory","Headlights-auto-off","Privacy Glass","Outside Temperature Gauge","Speed Control","Anti-roll Bars","Integrated Turn Signal Mirrors","Auto Headlight On\/off","Driver Illuminated Vanity Mirror","Electronic Stability Control","Traction Control","Variable Speed Intermittent Wipers","Rear Window Defroster","Rear Window Wiper"],"interior":["Illuminated Entry","Split Folding Rear Seat","Speed-sensing Steering","Automatic Temperature Control","Rear Seat Center Armrest","Knee Airbag","Front Center Armrest W\/storage","Anti-whiplash Front Head Restraints","11 Speakers","Dual Front Side Impact Airbags","Occupant Sensing Airbag","Navigation System","Back-up Camera","Memorized Settings, Includes Steering Wheel","Heated Steering Wheel","Smart Device Integration","Keyless Entry","Heated Rear Seat","Hd Radio","Ventilated Front Seats","Satellite Radio","Auxiliary Audio Input","Premium Sound System","Heated Front Seats","Steering Wheel Audio Controls","Keyless Start","Cooled Seats","Mp3 Player","Security System","Auto-dimming Rearview Mirror (ppo)","Automatic Climate Control","Cruise Control","Trip Computer","Rear Seats, Split Folding","Child Safety Locks","Rear Seats, Center Armrest","Multi-function Remote, Keyless\/illuminated Entry","Power Door Locks","Power Windows","Power Steering","Airbags - Passenger - Occupant Sensing Deactivation","Leather Shift Knob","Leather Wrapped Steering Wheel","Power Passenger Seat","Bucket Seats","Seat Memory","Adjustable Steering Wheel","Climate Control","Overhead Console","Rear Bench Seat","Panic Alarm","Rear Defrost","Door Pockets","Pass-through Rear Seat","Telescopic Steering Wheel","Driver Air Bag","Passenger Air Bag","Rear Head Air Bag","Tilt Steering Wheel","Passenger Illuminated Visor Mirror","Driver Vanity Mirror","Passenger Vanity Mirror","Dual Front Air Bags","Dual Zone A\/c","Leather Seats","Power Driver Seat","Universal Garage Door Opener","Front Bucket Seats","Low Tire Pressure Warning","Cd Player","Front Reading Lamps","A\/c","Compass","Radio Data System","Am\/fm Stereo Radio","Rear Defroster","Tachometer","Rear Reading Lamps"]}===============
04:22:59 - Skipping Duplicate Option Rear Spoiler
04:22:59 - Skipping Duplicate Option Power Liftgate
04:22:59 - Skipping Duplicate Option Brake Assist
04:22:59 - Skipping Duplicate Option Remote Trunk Release
04:22:59 - Skipping Duplicate Option 4-wheel Disc Brakes
04:22:59 - Skipping Duplicate Option Mirror Memory
04:22:59 - Skipping Duplicate Option Traction Control
04:22:59 - Skipping Duplicate Option Traction Control
04:22:59 - Skipping Duplicate Option Navigation System
04:22:59 - Skipping Duplicate Option Heated Steering Wheel
04:22:59 - Skipping Duplicate Option Keyless Entry
04:22:59 - Skipping Duplicate Option Keyless Start
04:22:59 - Skipping Duplicate Option Security System
04:22:59 - Skipping Duplicate Option Trip Computer
04:22:59 - Skipping Duplicate Option Trip Computer
04:22:59 - Skipping Duplicate Option Power Door Locks
04:22:59 - Skipping Duplicate Option Power Door Locks
04:22:59 - Skipping Duplicate Option Power Door Locks
04:22:59 - Skipping Duplicate Option Power Windows
04:22:59 - Skipping Duplicate Option Power Windows
04:22:59 - Skipping Duplicate Option Power Steering
04:22:59 - Skipping Duplicate Option Power Passenger Seat
04:22:59 - Skipping Duplicate Option Driver Vanity Mirror
04:22:59 - Skipping Duplicate Option Passenger Vanity Mirror
04:22:59 - Skipping Duplicate Option Power Driver Seat
04:22:59 - Skipping Duplicate Option Cd Player
04:22:59 - /var/app/video_pre_processor/assets/hvo/options_fe_audio_file_55.wav PlayTime:2.35
04:22:59 - /var/app/video_pre_processor/assets/hvo/options_fe_audio_file_1428.wav PlayTime:1.32
04:22:59 - /var/app/video_pre_processor/assets/hvo/options_fe_audio_file_82.wav PlayTime:1.18
04:22:59 - /var/app/video_pre_processor/assets/hvo/options_fe_audio_file_7.wav PlayTime:1.02
04:22:59 - /var/app/video_pre_processor/assets/hvo/options_fe_audio_file_68.wav PlayTime:1.15
04:22:59 - /var/app/video_pre_processor/assets/hvo/options_fe_audio_file_83.wav PlayTime:1.2
04:22:59 - /var/app/video_pre_processor/assets/hvo/options_fe_audio_file_272.wav PlayTime:1.44
04:22:59 - /var/app/video_pre_processor/assets/hvo/options_fe_audio_file_10.wav PlayTime:1.1
04:22:59 - /var/app/video_pre_processor/assets/hvo/options_fe_audio_file_238.wav PlayTime:1.2
04:22:59 - /var/app/video_pre_processor/assets/hvo/options_fe_audio_file_104.wav PlayTime:1.12
04:22:59 - /var/app/video_pre_processor/assets/hvo/options_fe_audio_file_17.wav PlayTime:1.25
04:22:59 - ======= ALL Options  ========== 
null
04:22:59 - /var/www/html/clients/16724/audio/FE61C6EF-DE4F-B373-5737-969BACE3D407_option.wav
04:22:59 - /usr/bin/sox /var/app/video_pre_processor/assets/hvo/options_fe_audio_file_55.wav /var/app/video_pre_processor/assets/hvo/options_fe_audio_file_1428.wav /var/app/video_pre_processor/assets/hvo/options_fe_audio_file_82.wav /var/app/video_pre_processor/assets/hvo/options_fe_audio_file_7.wav /var/app/video_pre_processor/assets/hvo/options_fe_audio_file_68.wav /var/app/video_pre_processor/assets/hvo/options_fe_audio_file_83.wav /var/app/video_pre_processor/assets/hvo/options_fe_audio_file_272.wav /var/app/video_pre_processor/assets/hvo/options_fe_audio_file_10.wav /var/app/video_pre_processor/assets/hvo/options_fe_audio_file_238.wav /var/app/video_pre_processor/assets/hvo/options_fe_audio_file_104.wav /var/app/video_pre_processor/assets/hvo/options_fe_audio_file_17.wav /var/www/html/clients/16724/audio/FE61C6EF-DE4F-B373-5737-969BACE3D407_option.wav
04:22:59 - /var/www/html/clients/16724/audio/FE61C6EF-DE4F-B373-5737-969BACE3D407_option.wav PlayTime:14.33
04:22:59 - Skipping VTT for CARFAX - carfaxFile
04:22:59 - /var/app/video_pre_processor/assets/hvo/emotional_fe_audio_file_2.wav PlayTime:1.93
04:22:59 - /usr/bin/sox /var/app/video_pre_processor/assets/hvo/ie_fe_audio_file_25.wav /var/app/video_pre_processor/assets/hvo/year_fe_audio_file_32.wav /var/app/video_pre_processor/assets/hvo/model_name_fe_audio_file_363.wav /var/app/video_pre_processor/assets/hvo/model_fe_audio_file_363.wav /var/app/video_pre_processor/assets/hvo/miles_fe_audio_file_26.wav /var/www/html/clients/16724/audio/FE61C6EF-DE4F-B373-5737-969BACE3D407_option.wav /var/app/video_pre_processor/assets/hvo/emotional_fe_audio_file_2.wav /var/www/html/clients/16724/audio/FE61C6EF-DE4F-B373-5737-969BACE3D407_temp1.wav
04:22:59 - Return from CheckProfileVal function::0 - REPLACE_FULL_AUDIO - 
04:22:59 - Return from CheckProfileVal function::0 - REPLACE_FULL_AUDIO_NEW - 
04:22:59 - ========REPALCE AUDIO TRACK LISTING TYPE used \ n USED VALUE : 0 NEW AUDIO VALUE : { 0} ==============

04:22:59 - Video Length for audio merge: 0
04:22:59 - /root/bin/ffmpeg  -i /var/www/html/clients/16724/audio/FE61C6EF-DE4F-B373-5737-969BACE3D407.wav -f mp3 -ar 44100 -ab 320 -ac 2 -y /var/www/html/clients/16724/audio/FE61C6EF-DE4F-B373-5737-969BACE3D407.mp3
ffmpeg version N-109053-g9b13078c6a Copyright (c) 2000-2022 the FFmpeg developers
  built with gcc 5.4.0 (GCC)
  configuration: --prefix=/root/ffmpeg_build --pkg-config-flags=--static --extra-cflags=-I/root/ffmpeg_build/include --extra-ldflags=-L/root/ffmpeg_build/lib --extra-libs=-lpthread --extra-libs=-lm --bindir=/root/bin --enable-gpl --enable-libfdk_aac --enable-libfreetype --enable-libmp3lame --enable-libopus --enable-libvpx --enable-libx264 --enable-openssl --enable-libx265 --enable-nonfree --enable-libvidstab
  libavutil      57. 42.100 / 57. 42.100
  libavcodec     59. 52.101 / 59. 52.101
  libavformat    59. 34.101 / 59. 34.101
  libavdevice    59.  8.101 / 59.  8.101
  libavfilter     8. 50.100 /  8. 50.100
  libswscale      6.  8.112 /  6.  8.112
  libswresample   4.  9.100 /  4.  9.100
  libpostproc    56.  7.100 / 56.  7.100
Guessed Channel Layout for Input Stream #0.0 : stereo
Input #0, wav, from '/var/www/html/clients/16724/audio/FE61C6EF-DE4F-B373-5737-969BACE3D407.wav':
  Duration: 00:00:38.13, bitrate: 1411 kb/s
  Stream #0:0: Audio: pcm_s16le ([1][0][0][0] / 0x0001), 44100 Hz, 2 channels, s16, 1411 kb/s
Stream mapping:
  Stream #0:0 -> #0:0 (pcm_s16le (native) -> mp3 (libmp3lame))
Press [q] to stop, [?] for help
[libmp3lame @ 0x4b60480] Bitrate 320 is extremely low, maybe you mean 320k
The bitrate parameter is set too low. It takes bits/s as argument, not kbits/s
Output #0, mp3, to '/var/www/html/clients/16724/audio/FE61C6EF-DE4F-B373-5737-969BACE3D407.mp3':
  Metadata:
    TSSE            : Lavf59.34.101
  Stream #0:0: Audio: mp3, 44100 Hz, stereo, s16p, 0 kb/s
    Metadata:
      encoder         : Lavc59.52.101 libmp3lame
size=       0kB time=-577014:32:22.77 bitrate=  -0.0kbits/s speed=N/A    
size=     141kB time=00:00:09.03 bitrate= 128.2kbits/s speed=18.1x    
size=     256kB time=00:00:17.73 bitrate= 118.2kbits/s speed=17.7x    
size=     256kB time=00:00:26.35 bitrate=  79.6kbits/s speed=17.6x    
size=     512kB time=00:00:33.01 bitrate= 127.0kbits/s speed=16.4x    
size=     597kB time=00:00:38.11 bitrate= 128.2kbits/s speed=16.6x    
video:0kB audio:596kB subtitle:0kB other streams:0kB global headers:0kB muxing overhead: 0.041432%
04:23:01 - /var/app/video_pre_processor/assets/vidbot/_files/audio/Concept7.mp3 PlayTime:405.94
04:23:01 - Using Concept7.mp3 - /var/app/video_pre_processor/assets/vidbot/_files/audio/Concept7.mp3
04:23:01 - BG MUSIC FILE /var/app/video_pre_processor/assets/vidbot/_files/audio/Concept7.mp3 

04:23:01 - BG AUDIO CLIENT OVELAY VALUE : 2 

04:23:01 - /var/www/html/clients/16724/audio/FE61C6EF-DE4F-B373-5737-969BACE3D407.wav PlayTime:38.13
04:23:01 - VParent - VOLEN:40.13 | /var/www/html/clients/16724/audio/FE61C6EF-DE4F-B373-5737-969BACE3D407.mp3 | /var/app/video_pre_processor/assets/vidbot/_files/audio/Concept7.mp3 | /var/www/html/clients/16724/audio/FE61C6EF-DE4F-B373-5737-969BACE3D407.wav
04:23:01 - AUDIO PROCESS RETURN VALUE: - 1
04:23:01 - update message_remote_queue set video_process_start = '2024-04-17 04:23:01' where queue_id = 132608
04:23:01 - CLIENT INFO DATA 
{"client_id":"16724","client_fk":"9D9816D3-0F50-AE76-A2F1-1CC749AF7027","client_acc_id":"29","client_name":"Larry H. Miller Volkswagen Lakewood","client_desc":"360 Spin","client_color":"000000","client_player_color":"","client_textcolor":"","client_tts_text":"","client_tts_options":"","client_inactive":"0","client_createdate":"2022-05-16 17:55:40","client_enddate":"","client_update":"2023-02-13 16:30:07","client_email_forward":"devin.schubert@lhmauto.com","client_dealer_id":"Larry H. Miller Volkswagen Lakewood","client_franchise_number":"","client_salesperson_name":"Devin","client_address":"Schubert","client_city":"8303 W Colfax Avenue","client_state":"Lakewood","client_zip":"80214","client_phone":"855-413-4477","client_url":"\/www.lhmvw.com","client_fb_id":"","client_km":"0","client_special_price":"0","client_demo":"0","client_utube_flag":"1","client_cvo":"1","client_tts":"0","client_live_uv":"1","client_live_overlay":"2","client_av":"0","client_gv":"0","client_af":"0","client_video_email":"0","client_carfax":"0","client_intro":"1","client_outro":"1","client_slider":"0","client_music_id":"15","client_ei":"0","client_tts_vm":"2","client_hvo":"1","client_mobile":"0","client_portal":"0","client_instavid":"0","client_new_stock_video":"0","client_vidmagnet":"0","client_auto_play":"1","client_cpo":"0","client_vid_stab":"1","client_vp":"1","client_xl":"1","client_carstory":"0","client_360_player":"1","client_ece":"0","client_capture_video":"0","client_new_cvo":"0","client_pip":"1","client_account_id":"","client_crm_email":"","client_crm_dealer_id":"","client_crm_dealer_key":"","client_archive":"0","client_damage_photo":"0","client_package":"41212","client_video_size":"HDXLARGE","client_video_style":"RANDOM","client_lat_lng":"","client_comments":"","CONVERT_360_PA_TO_VID":"1","CONVERT_360_TO_VID":"1","EXTRACT_IMAGES":"YES","THUMB_EXTRACT_TIME":"1","VIDEO_SIZE":"HD-XLARGE","VIDEO_STABILIZE":"YES","SHOW_CARSTORY":"0"}
04:23:01 - Map Exists: /var/www/html/clients/16724/library/map.jpg
04:23:01 - Failed: Deleting - /var/www/html/clients/16724/library/intro.mp4 - too small in size:19
04:23:01 - File Download Failed http://media.flickfusion.net/avavids/1/clients/16724/library/intro.mp4 - /var/www/html/clients/16724/library/intro.mp4
04:23:01 180 - ShellApp::DownloadExternalFile - Array
(
    [url] => http://gcsimages.storage.googleapis.com/clients/16724/library/16724_intro.mp4
    [content_type] => application/xml; charset=UTF-8
    [http_code] => 403
    [header_size] => 410
    [request_size] => 234
    [filetime] => -1
    [ssl_verify_result] => 0
    [redirect_count] => 0
    [total_time] => 0.088387
    [namelookup_time] => 0.004179
    [connect_time] => 0.011054
    [pretransfer_time] => 0.027324
    [size_upload] => 0
    [size_download] => 298
    [speed_download] => 3371
    [speed_upload] => 0
    [download_content_length] => 298
    [upload_content_length] => 0
    [starttransfer_time] => 0.088306
    [redirect_time] => 0
    [redirect_url] => 
    [primary_ip] => 142.251.32.27
    [certinfo] => Array
        (
        )

    [primary_port] => 80
    [local_ip] => 209.59.156.167
    [local_port] => 44366
)

04:23:01 - File Download Failed http://gcsimages.storage.googleapis.com/clients/16724/library/16724_intro.mp4 - /var/www/html/clients/16724/library/intro.mp4
04:23:01 - Failed: Deleting - /var/www/html/clients/16724/library/outro.mp4 - too small in size:19
04:23:01 - File Download Failed http://media.flickfusion.net/avavids/1/clients/16724/library/outro.mp4 - /var/www/html/clients/16724/library/outro.mp4
04:23:01 180 - ShellApp::DownloadExternalFile - Array
(
    [url] => http://gcsimages.storage.googleapis.com/clients/16724/library/16724_outro.mp4
    [content_type] => application/xml; charset=UTF-8
    [http_code] => 403
    [header_size] => 410
    [request_size] => 234
    [filetime] => -1
    [ssl_verify_result] => 0
    [redirect_count] => 0
    [total_time] => 0.069992
    [namelookup_time] => 0.004169
    [connect_time] => 0.011009
    [pretransfer_time] => 0.011048
    [size_upload] => 0
    [size_download] => 298
    [speed_download] => 4257
    [speed_upload] => 0
    [download_content_length] => 298
    [upload_content_length] => 0
    [starttransfer_time] => 0.069968
    [redirect_time] => 0
    [redirect_url] => 
    [primary_ip] => 142.250.191.123
    [certinfo] => Array
        (
        )

    [primary_port] => 80
    [local_ip] => 209.59.156.167
    [local_port] => 60444
)

04:23:01 - File Download Failed http://gcsimages.storage.googleapis.com/clients/16724/library/16724_outro.mp4 - /var/www/html/clients/16724/library/outro.mp4
04:23:02 - Failed: Deleting - /var/www/html/clients/16724/library/960_intro.mp4 - too small in size:19
04:23:02 - File Download Failed http://media.flickfusion.net/avavids/1/clients/16724/library/intro.mp4 - /var/www/html/clients/16724/library/960_intro.mp4
04:23:02 180 - ShellApp::DownloadExternalFile - Array
(
    [url] => http://gcsimages.storage.googleapis.com/clients/16724/library/960_16724_intro.mp4
    [content_type] => application/xml; charset=UTF-8
    [http_code] => 403
    [header_size] => 403
    [request_size] => 238
    [filetime] => -1
    [ssl_verify_result] => 0
    [redirect_count] => 0
    [total_time] => 0.066097
    [namelookup_time] => 0.004209
    [connect_time] => 0.011055
    [pretransfer_time] => 0.011101
    [size_upload] => 0
    [size_download] => 298
    [speed_download] => 4508
    [speed_upload] => 0
    [download_content_length] => 298
    [upload_content_length] => 0
    [starttransfer_time] => 0.06607
    [redirect_time] => 0
    [redirect_url] => 
    [primary_ip] => 142.250.191.187
    [certinfo] => Array
        (
        )

    [primary_port] => 80
    [local_ip] => 209.59.156.167
    [local_port] => 44706
)

04:23:02 - File Download Failed http://gcsimages.storage.googleapis.com/clients/16724/library/960_16724_intro.mp4 - /var/www/html/clients/16724/library/960_intro.mp4
04:23:02 - Failed: Deleting - /var/www/html/clients/16724/library/960_outro.mp4 - too small in size:19
04:23:02 - File Download Failed http://media.flickfusion.net/avavids/1/clients/16724/library/outro.mp4 - /var/www/html/clients/16724/library/960_outro.mp4
04:23:02 180 - ShellApp::DownloadExternalFile - Array
(
    [url] => http://gcsimages.storage.googleapis.com/clients/16724/library/960_16724_outro.mp4
    [content_type] => application/xml; charset=UTF-8
    [http_code] => 403
    [header_size] => 410
    [request_size] => 238
    [filetime] => -1
    [ssl_verify_result] => 0
    [redirect_count] => 0
    [total_time] => 0.176201
    [namelookup_time] => 0.004165
    [connect_time] => 0.027045
    [pretransfer_time] => 0.027086
    [size_upload] => 0
    [size_download] => 298
    [speed_download] => 1691
    [speed_upload] => 0
    [download_content_length] => 298
    [upload_content_length] => 0
    [starttransfer_time] => 0.176136
    [redirect_time] => 0
    [redirect_url] => 
    [primary_ip] => 172.217.5.27
    [certinfo] => Array
        (
        )

    [primary_port] => 80
    [local_ip] => 209.59.156.167
    [local_port] => 44360
)

04:23:02 - File Download Failed http://gcsimages.storage.googleapis.com/clients/16724/library/960_16724_outro.mp4 - /var/www/html/clients/16724/library/960_outro.mp4
04:23:02 - Checking CUSTOM_INTRO
04:23:02 - Checking CUSTOM_OUTRO
04:23:02 - ================CREATE VIDEO START =========== 

04:23:02 - ================VIDEO JSON GEN START ==============
04:23:02 - Video Size 540
04:23:02 - ===========Video Theme font ================Dinot
04:23:02 - ==========Video fk : ==============FE61C6EF-DE4F-B373-5737-969BACE3D407
04:23:02 - ==============AUDIO VIDEO CONFIG : =========={"BG_MUSIC":"Concept7","THEME_BG_COLOR":"ffffff","THEME_ACCENTS_COLOR":"047ec1","THEME_FONT_COLOR":"000000","THEME_FONT":"Dinot","THEME_STYLE":"Ren","BG_VOL_LEVEL":"0.25","AUDIO_VO":"VO","VIDEO_SIZE":"HD-XLARGE","CUSTOM_INTRO":"","CUSTOM_OUTRO":"","THEME_KEY":"29_0_Auto_Default_0_ALL","THEME_RANK":"2","THEME_CONFIG":"RESELLER_CONFIG","OLD_BG_STYLE":"0"}
04:23:02 - CLIENT FKEY :  9D9816D3-0F50-AE76-A2F1-1CC749AF7027  VIDEO FKEY :  FE61C6EF-DE4F-B373-5737-969BACE3D407  VEHICLE FKEY :   
04:23:02 - INFO:: Video Type:SS Video Size:540 
04:23:02 - Return from CheckProfileVal function::0 - DISPLAY_MILEAGE - NO
04:23:02 - Return from CheckProfileVal function::0 - DISPLAY_MILEAGE - NO
04:23:02 - ==================ClipsGen START  =====================

04:23:02 - Return from CheckProfileVal function::0 - AUDIO_VO - NO_VO
04:23:02 - Return from CheckProfileVal function::0 - AUDIO_VO - NO_VO
04:23:02 - Return from CheckProfileVal function::0 - AUDIO_VO - LIVE_VO
04:23:02 - Return from CheckProfileVal function::0 - AUDIO_VO - LIVE_VO
04:23:02 - Return from CheckProfileVal function::0 - DISPLAY_OPTIONS - NO
04:23:02 - Return from CheckProfileVal function::0 - DISPLAY_OPTIONS - NO
04:23:02 - Return from CheckProfileVal function::0 - DISPLAY_PRICE - NO
04:23:02 - Return from CheckProfileVal function::0 - DISPLAY_PRICE - NO
04:23:02 - Return from CheckProfileVal function::0 - DISABLE_PRICE - YES
04:23:02 - Return from CheckProfileVal function::0 - DISPLAY_MILEAGE - NO
04:23:02 - Return from CheckProfileVal function::0 - DISPLAY_MILEAGE - NO
04:23:02 - Return from CheckProfileVal function::0 - DISPLAY_INFO - NO
04:23:02 - Return from CheckProfileVal function::0 - DISPLAY_INFO - NO
04:23:02 - Return from CheckProfileVal function::0 - DISPLAY_TITLE_WSNAME - NO
04:23:02 - Return from CheckProfileVal function::0 - DISPLAY_TITLE_WSNAME - NO
04:23:02 - Return from CheckProfileVal function::0 - DISPLAY_ALL_OVERLAYS - NO
04:23:02 - Return from CheckProfileVal function::0 - DISPLAY_ALL_OVERLAYS - NO
04:23:02 - Return from CheckProfileVal function::0 - DISPLAY_MAP - NO
04:23:02 - Return from CheckProfileVal function::0 - DISPLAY_MAP - NO
04:23:02 - =========THEME STYLE-FONT :Ren - Din  ============
04:23:02 - /usr/bin/sox  /var/app/video_pre_processor/assets/music/silence_3.wav /var/www/html/clients/16724/audio/FE61C6EF-DE4F-B373-5737-969BACE3D407.wav /var/www/html/clients/16724/audio/FE61C6EF-DE4F-B373-5737-969BACE3D407_info_audio.wav
04:23:02 - /var/app/video_pre_processor/assets/vidbot/_files/audio/Concept7.mp3 PlayTime:405.94
04:23:02 - Return from CheckProfileVal function::0 - BG_MUSIC_OVER_ALL_CLIPS - YES
04:23:02 - Return from CheckProfileVal function::0 - BG_MUSIC_OVER_ALL_CLIPS - YES
04:23:02 - AUDIO TIMER: 
{"INTRO":0,"YEAR":1.93,"MODEL":3.45,"HIGH":4.34,"MILE":18.47,"ALL_OPTIONS":{"* General Options Intro":21.869999999999997,"Blind Spot Monitor":24.22,"All Wheel Drive":25.54,"Heated Mirrors":26.72,"Alloy Wheels":27.74,"Aluminum Wheels":28.889999999999997,"Remote Engine Start":30.089999999999996,"Rear Spoiler":31.529999999999998,"Power Liftgate":32.629999999999995,"Brake Assist":33.83,"Stability Control":34.949999999999996},"OPTIONS":23.869999999999997,"OPTIONS_AUD_LENGTH":14.33,"ENDFILE":36.199999999999996}
04:23:02 - ===================ClipsGen END  ======================== 

04:23:02 - INFO:: VIDEO JSON : "FE61C6EF-DE4F-B373-5737-969BACE3D407.json"
04:23:02 - node /var/app/Vidbot-V2/dist/vidbot.js --input /var/www/html/clients/16724/video/FE61C6EF-DE4F-B373-5737-969BACE3D407.json --log debug > /var/www/html/clients/16724/video/FE61C6EF-DE4F-B373-5737-969BACE3D407.log