20:54:21 - Getting Text For Audio Files emotionalFile 12
20:54:21 - HVO Soap Call Method - GetTTScripts 

20:54:21 - Getting Text For Audio Files introEmotionalFile 21
20:54:21 - HVO Soap Call Method - GetTTScripts 

20:54:21 - Getting Text For Audio Files scriptFile 23
20:54:21 - HVO Soap Call Method - GetTTScripts 

20:54:21 - ================TTS VM VALUE=========== 
 2
20:54:21 - ================GetVOFiles=========== 
 {"OptionFiles":[{"option_str":"* General Options Intro","option_file":"http:\/\/hvo.flickfusion.net\/audio\/options\/options_fe_audio_file_55.mp3","option_saftey":1},{"option_str":"Back-Up Camera","option_file":"http:\/\/hvo.flickfusion.net\/audio\/options\/options_fe_audio_file_337.mp3","option_saftey":1},{"option_str":"Power Liftgate","option_file":"http:\/\/hvo.flickfusion.net\/audio\/options\/options_fe_audio_file_238.mp3","option_saftey":1},{"option_str":"LED Headlights","option_file":"http:\/\/hvo.flickfusion.net\/audio\/options\/options_fe_audio_file_1349.mp3","option_saftey":1},{"option_str":"Navigation System","option_file":"http:\/\/hvo.flickfusion.net\/audio\/options\/options_fe_audio_file_219.mp3","option_saftey":1},{"option_str":"ANTI-LOCK BRAKING SYSTEM","option_file":"http:\/\/hvo.flickfusion.net\/audio\/options\/options_fe_audio_file_70.mp3","option_saftey":1},{"option_str":"Steering wheel audio controls","option_file":"http:\/\/hvo.flickfusion.net\/audio\/options\/options_fe_audio_file_296.mp3","option_saftey":1},{"option_str":"Power Passenger Seat","option_file":"http:\/\/hvo.flickfusion.net\/audio\/options\/options_fe_audio_file_242.mp3","option_saftey":1},{"option_str":"All Wheel Drive","option_file":"http:\/\/hvo.flickfusion.net\/audio\/options\/options_fe_audio_file_82.mp3","option_saftey":1},{"option_str":"Keyless Entry","option_file":"http:\/\/hvo.flickfusion.net\/audio\/options\/options_fe_audio_file_202.mp3","option_saftey":1},{"option_str":"Power Liftgate","option_file":"http:\/\/hvo.flickfusion.net\/audio\/options\/options_fe_audio_file_238.mp3","option_saftey":1},{"option_str":"Remote Engine Start","option_file":"http:\/\/hvo.flickfusion.net\/audio\/options\/options_fe_audio_file_272.mp3","option_saftey":1},{"option_str":"Remote Engine Start","option_file":"http:\/\/hvo.flickfusion.net\/audio\/options\/options_fe_audio_file_272.mp3","option_saftey":1},{"option_str":"Traction Control","option_file":"http:\/\/hvo.flickfusion.net\/audio\/options\/options_fe_audio_file_18.mp3","option_saftey":2},{"option_str":"Stability Control","option_file":"http:\/\/hvo.flickfusion.net\/audio\/options\/options_fe_audio_file_17.mp3","option_saftey":2},{"option_str":"Keyless Entry","option_file":"http:\/\/hvo.flickfusion.net\/audio\/options\/options_fe_audio_file_202.mp3","option_saftey":1},{"option_str":"Traction Control","option_file":"http:\/\/hvo.flickfusion.net\/audio\/options\/options_fe_audio_file_18.mp3","option_saftey":2},{"option_str":"Lane Departure Warning","option_file":"http:\/\/hvo.flickfusion.net\/audio\/options\/options_fe_audio_file_1348.mp3","option_saftey":1},{"option_str":"Lane Departure Warning","option_file":"http:\/\/hvo.flickfusion.net\/audio\/options\/options_fe_audio_file_1348.mp3","option_saftey":1},{"option_str":"Bluetooth","option_file":"http:\/\/hvo.flickfusion.net\/audio\/options\/options_fe_audio_file_846.mp3","option_saftey":1},{"option_str":"Leather Wrapped Steering Wheel","option_file":"http:\/\/hvo.flickfusion.net\/audio\/options\/options_fe_audio_file_207.mp3","option_saftey":1},{"option_str":"Adjustable Steering Wheel","option_file":"http:\/\/hvo.flickfusion.net\/audio\/options\/options_fe_audio_file_74.mp3","option_saftey":1},{"option_str":"Driver Air Bag","option_file":"http:\/\/hvo.flickfusion.net\/audio\/options\/options_fe_audio_file_148.mp3","option_saftey":1},{"option_str":"Power Steering","option_file":"http:\/\/hvo.flickfusion.net\/audio\/options\/options_fe_audio_file_244.mp3","option_saftey":1},{"option_str":"4-Wheel Disc Brakes","option_file":"http:\/\/hvo.flickfusion.net\/audio\/options\/options_fe_audio_file_63.mp3","option_saftey":1},{"option_str":"Keyless Start","option_file":"http:\/\/hvo.flickfusion.net\/audio\/options\/options_fe_audio_file_203.mp3","option_saftey":1},{"option_str":"Lane Keeping Assist","option_file":"","option_saftey":1},{"option_str":"Cruise Control","option_file":"http:\/\/hvo.flickfusion.net\/audio\/options\/options_fe_audio_file_134.mp3","option_saftey":1},{"option_str":"Aluminum Wheels","option_file":"http:\/\/hvo.flickfusion.net\/audio\/options\/options_fe_audio_file_83.mp3","option_saftey":1},{"option_str":"Keyless Start","option_file":"http:\/\/hvo.flickfusion.net\/audio\/options\/options_fe_audio_file_203.mp3","option_saftey":1},{"option_str":"AUTO-DIMMING REARVIEW MIRROR (PPO)","option_file":"http:\/\/hvo.flickfusion.net\/audio\/options\/options_fe_audio_file_436.mp3","option_saftey":1},{"option_str":"Rear Defrost","option_file":"http:\/\/hvo.flickfusion.net\/audio\/options\/options_fe_audio_file_259.mp3","option_saftey":1},{"option_str":"HEAD-UP DISPLAY","option_file":"http:\/\/hvo.flickfusion.net\/audio\/options\/options_fe_audio_file_410.mp3","option_saftey":1},{"option_str":"power folding mirrors","option_file":"","option_saftey":1},{"option_str":"Universal Garage Door Opener","option_file":"http:\/\/hvo.flickfusion.net\/audio\/options\/options_fe_audio_file_323.mp3","option_saftey":1},{"option_str":"Premium Sound System","option_file":"http:\/\/hvo.flickfusion.net\/audio\/options\/options_fe_audio_file_248.mp3","option_saftey":1},{"option_str":"AM\/FM STEREO RADIO","option_file":"http:\/\/hvo.flickfusion.net\/audio\/options\/options_fe_audio_file_69.mp3","option_saftey":1},{"option_str":"Climate Control","option_file":"http:\/\/hvo.flickfusion.net\/audio\/options\/options_fe_audio_file_126.mp3","option_saftey":1},{"option_str":"Power Windows","option_file":"http:\/\/hvo.flickfusion.net\/audio\/options\/options_fe_audio_file_2.mp3","option_saftey":1},{"option_str":"Bucket Seats","option_file":"http:\/\/hvo.flickfusion.net\/audio\/options\/options_fe_audio_file_107.mp3","option_saftey":1},{"option_str":"Power Windows","option_file":"http:\/\/hvo.flickfusion.net\/audio\/options\/options_fe_audio_file_2.mp3","option_saftey":1},{"option_str":"Trip Computer","option_file":"http:\/\/hvo.flickfusion.net\/audio\/options\/options_fe_audio_file_321.mp3","option_saftey":1},{"option_str":"Power Door Locks","option_file":"http:\/\/hvo.flickfusion.net\/audio\/options\/options_fe_audio_file_234.mp3","option_saftey":1},{"option_str":"MP3 Player","option_file":"http:\/\/hvo.flickfusion.net\/audio\/options\/options_fe_audio_file_211.mp3","option_saftey":1},{"option_str":"Power Door Locks","option_file":"http:\/\/hvo.flickfusion.net\/audio\/options\/options_fe_audio_file_234.mp3","option_saftey":1},{"option_str":"Trip Computer","option_file":"http:\/\/hvo.flickfusion.net\/audio\/options\/options_fe_audio_file_321.mp3","option_saftey":1},{"option_str":"Bucket Seats","option_file":"http:\/\/hvo.flickfusion.net\/audio\/options\/options_fe_audio_file_107.mp3","option_saftey":1},{"option_str":"SECURITY SYSTEM","option_file":"http:\/\/hvo.flickfusion.net\/audio\/options\/options_fe_audio_file_996.mp3","option_saftey":1},{"option_str":"Passenger Air Bag","option_file":"http:\/\/hvo.flickfusion.net\/audio\/options\/options_fe_audio_file_228.mp3","option_saftey":1},{"option_str":"HEATED STEERING WHEEL ","option_file":"http:\/\/hvo.flickfusion.net\/audio\/options\/options_fe_audio_file_839.mp3","option_saftey":1},{"option_str":"Power Door Locks","option_file":"http:\/\/hvo.flickfusion.net\/audio\/options\/options_fe_audio_file_234.mp3","option_saftey":1},{"option_str":"Power Door Locks","option_file":"http:\/\/hvo.flickfusion.net\/audio\/options\/options_fe_audio_file_234.mp3","option_saftey":1},{"option_str":"Child Safety Locks","option_file":"http:\/\/hvo.flickfusion.net\/audio\/options\/options_fe_audio_file_122.mp3","option_saftey":1},{"option_str":"Dual Moonroof","option_file":"http:\/\/hvo.flickfusion.net\/audio\/options\/options_fe_audio_file_461.mp3","option_saftey":1},{"option_str":"Satellite Radio","option_file":"http:\/\/hvo.flickfusion.net\/audio\/options\/options_fe_audio_file_279.mp3","option_saftey":1},{"option_str":"Leather Seats","option_file":"http:\/\/hvo.flickfusion.net\/audio\/options\/options_fe_audio_file_206.mp3","option_saftey":1},{"option_str":"Brake Assist","option_file":"http:\/\/hvo.flickfusion.net\/audio\/options\/options_fe_audio_file_104.mp3","option_saftey":1},{"option_str":"Auxiliary Audio Input","option_file":"http:\/\/hvo.flickfusion.net\/audio\/options\/options_fe_audio_file_95.mp3","option_saftey":1},{"option_str":"HD Radio","option_file":"http:\/\/hvo.flickfusion.net\/audio\/options\/options_fe_audio_file_452.mp3","option_saftey":1},{"option_str":"CARPETED FLOOR MATS ","option_file":"http:\/\/hvo.flickfusion.net\/audio\/options\/options_fe_audio_file_361.mp3","option_saftey":1},{"option_str":"Rear Head Air Bag","option_file":"http:\/\/hvo.flickfusion.net\/audio\/options\/options_fe_audio_file_261.mp3","option_saftey":1},{"option_str":"Daytime Running Lights","option_file":"http:\/\/hvo.flickfusion.net\/audio\/options\/options_fe_audio_file_142.mp3","option_saftey":1},{"option_str":"Dual Moonroof","option_file":"http:\/\/hvo.flickfusion.net\/audio\/options\/options_fe_audio_file_461.mp3","option_saftey":1},{"option_str":"Seat Memory","option_file":"http:\/\/hvo.flickfusion.net\/audio\/options\/options_fe_audio_file_280.mp3","option_saftey":1},{"option_str":"A\/C","option_file":"http:\/\/hvo.flickfusion.net\/audio\/options\/options_fe_audio_file_67.mp3","option_saftey":1},{"option_str":"Remote Trunk Release","option_file":"http:\/\/hvo.flickfusion.net\/audio\/options\/options_fe_audio_file_275.mp3","option_saftey":1},{"option_str":"Driver Vanity Mirror","option_file":"http:\/\/hvo.flickfusion.net\/audio\/options\/options_fe_audio_file_152.mp3","option_saftey":1},{"option_str":"Power Driver Seat","option_file":"http:\/\/hvo.flickfusion.net\/audio\/options\/options_fe_audio_file_237.mp3","option_saftey":1},{"option_str":"Driver Illuminated Vanity Mirror","option_file":"http:\/\/hvo.flickfusion.net\/audio\/options\/options_fe_audio_file_149.mp3","option_saftey":1},{"option_str":"Passenger Illuminated Visor Mirror","option_file":"http:\/\/hvo.flickfusion.net\/audio\/options\/options_fe_audio_file_230.mp3","option_saftey":1},{"option_str":"Remote Trunk Release","option_file":"http:\/\/hvo.flickfusion.net\/audio\/options\/options_fe_audio_file_275.mp3","option_saftey":1},{"option_str":"Privacy Glass","option_file":"http:\/\/hvo.flickfusion.net\/audio\/options\/options_fe_audio_file_249.mp3","option_saftey":1},{"option_str":"Passenger Vanity Mirror","option_file":"http:\/\/hvo.flickfusion.net\/audio\/options\/options_fe_audio_file_233.mp3","option_saftey":1},{"option_str":"Rear Parking Aid","option_file":"http:\/\/hvo.flickfusion.net\/audio\/options\/options_fe_audio_file_262.mp3","option_saftey":1},{"option_str":"Telematics","option_file":"http:\/\/hvo.flickfusion.net\/audio\/options\/options_fe_audio_file_303.mp3","option_saftey":1},{"option_str":"Rain Sensing Wipers","option_file":"http:\/\/hvo.flickfusion.net\/audio\/options\/options_fe_audio_file_254.mp3","option_saftey":1},{"option_str":"Mirror Memory","option_file":"http:\/\/hvo.flickfusion.net\/audio\/options\/options_fe_audio_file_214.mp3","option_saftey":1},{"option_str":"Integrated Turn Signal Mirrors","option_file":"http:\/\/hvo.flickfusion.net\/audio\/options\/options_fe_audio_file_198.mp3","option_saftey":1},{"option_str":"Heated Mirrors","option_file":"http:\/\/hvo.flickfusion.net\/audio\/options\/options_fe_audio_file_7.mp3","option_saftey":1},{"option_str":"Turbocharged","option_file":"http:\/\/hvo.flickfusion.net\/audio\/options\/options_fe_audio_file_322.mp3","option_saftey":1},{"option_str":"Woodgrain Interior Trim","option_file":"http:\/\/hvo.flickfusion.net\/audio\/options\/options_fe_audio_file_335.mp3","option_saftey":1},{"option_str":"Rear Spoiler","option_file":"http:\/\/hvo.flickfusion.net\/audio\/options\/options_fe_audio_file_10.mp3","option_saftey":1},{"option_str":"Tires - Front Performance","option_file":"http:\/\/hvo.flickfusion.net\/audio\/options\/options_fe_audio_file_311.mp3","option_saftey":1},{"option_str":"ADAPTIVE CRUISE CONTROL  ","option_file":"http:\/\/hvo.flickfusion.net\/audio\/options\/options_fe_audio_file_874.mp3","option_saftey":1},{"option_str":"Tires - Rear Performance","option_file":"http:\/\/hvo.flickfusion.net\/audio\/options\/options_fe_audio_file_316.mp3","option_saftey":1},{"option_str":"Tire Pressure Monitor","option_file":"http:\/\/hvo.flickfusion.net\/audio\/options\/options_fe_audio_file_36.mp3","option_saftey":2},{"option_str":"WiFi Hotspot","option_file":"http:\/\/hvo.flickfusion.net\/audio\/options\/options_fe_audio_file_1501.mp3","option_saftey":1},{"option_str":"Variable Speed Intermittent Wipers","option_file":"http:\/\/hvo.flickfusion.net\/audio\/options\/options_fe_audio_file_325.mp3","option_saftey":1},{"option_str":"Smart Device Integration","option_file":"http:\/\/hvo.flickfusion.net\/audio\/options\/options_fe_audio_file_1480.mp3","option_saftey":1},{"option_str":"Rear Bucket Seats","option_file":"http:\/\/hvo.flickfusion.net\/audio\/options\/options_fe_audio_file_1471.mp3","option_saftey":1},{"option_str":"3RD ROW SEAT","option_file":"","option_saftey":1},{"option_str":"Blind Spot Monitor","option_file":"http:\/\/hvo.flickfusion.net\/audio\/options\/options_fe_audio_file_1428.mp3","option_saftey":1},{"option_str":"Sun\/Moonroof","option_file":"http:\/\/hvo.flickfusion.net\/audio\/options\/options_fe_audio_file_1484.mp3","option_saftey":1}],"yearFile":"http:\/\/hvo.flickfusion.net\/audio\/year\/year_fe_audio_file_66.mp3","makeFile":"http:\/\/hvo.flickfusion.net\/audio\/makes\/make_name_fe_audio_file_18.mp3","modelFile":"http:\/\/hvo.flickfusion.net\/audio\/mdlnames\/model_name_fe_audio_file_157.mp3","modelHighlightFile":"http:\/\/hvo.flickfusion.net\/audio\/models\/model_fe_audio_file_157.mp3","styleFile":"","bodytypeFile":"","transFile":"http:\/\/hvo.flickfusion.net\/audio\/domain_transmission\/transmission_fe_audio_file_2.mp3","engineFile":"http:\/\/hvo.flickfusion.net\/audio\/domain_enginesize\/enginesize_fe_audio_file_5.mp3","cylindersFile":"http:\/\/hvo.flickfusion.net\/audio\/domain_cylinders\/cylinder_fe_audio_file_4.mp3","driveTrainFile":"http:\/\/hvo.flickfusion.net\/audio\/domain_drivetrain\/drivetrain_fe_audio_file_4.mp3","priceFile":"http:\/\/hvo.flickfusion.net\/audio\/prices\/price_fe_audio_file_18.mp3","mileageFile":"http:\/\/hvo.flickfusion.net\/audio\/mileage\/miles_fe_audio_file_33.mp3","carfaxFile":"","emotionalFile":"http:\/\/hvo.flickfusion.net\/audio\/emotional\/emotional_fe_audio_file_12.mp3","introEmotionalFile":"http:\/\/hvo.flickfusion.net\/audio\/emotional\/ie_fe_audio_file_21.mp3","scriptFile":"http:\/\/hvo.flickfusion.net\/audio\/domain_scripts\/script_fe_audio_file_23.mp3","statusCode":"1","statusMessage":"Audio Files Sent"}
20:54:21 - /var/www/html/clients/108530/audio/F3A2D55E-AE80-015E-5755-1768B614947A.wav
20:54:21 - ================Process HVO SOAP CALL CMD=========== 
 /usr/bin/sox
 STATUS CODE 
 1
20:54:21 - /var/app/video_pre_processor/assets/hvo/ie_fe_audio_file_21.wav PlayTime:2.85
20:54:21 - /var/app/video_pre_processor/assets/hvo/year_fe_audio_file_66.wav PlayTime:1.88
20:54:21 - /var/app/video_pre_processor/assets/hvo/model_name_fe_audio_file_157.wav PlayTime:0.97
20:54:21 - /var/app/video_pre_processor/assets/hvo/model_fe_audio_file_157.wav PlayTime:4.99
20:54:21 - Skipping VTT for BODY - bodytypeFile
20:54:21 - /var/app/video_pre_processor/assets/hvo/price_fe_audio_file_18.wav PlayTime:2.9
20:54:21 - KM Check : 14 | 0
20:54:21 - /var/app/video_pre_processor/assets/hvo/miles_fe_audio_file_33.wav PlayTime:2.61
20:54:21 - Curl Response - {"error":"Vehicle options not found for vehicle key[F3A2D55E-AE80-015E-5755-1768B614947A]"}
20:54:21 - ============={"error":"Vehicle options not found for vehicle key[F3A2D55E-AE80-015E-5755-1768B614947A]"}===============
20:54:21 - Skipping Duplicate Option Power Liftgate
20:54:21 - Skipping Duplicate Option Remote Engine Start
20:54:21 - Skipping Duplicate Option Keyless Entry
20:54:21 - Skipping Duplicate Option Traction Control
20:54:21 - Skipping Duplicate Option Lane Departure Warning
20:54:21 - Skipping Duplicate Option Keyless Start
20:54:21 - Skipping Duplicate Option Power Windows
20:54:21 - Skipping Duplicate Option Power Door Locks
20:54:21 - Skipping Duplicate Option Trip Computer
20:54:21 - Skipping Duplicate Option Bucket Seats
20:54:21 - Skipping Duplicate Option Power Door Locks
20:54:21 - Skipping Duplicate Option Power Door Locks
20:54:21 - Skipping Duplicate Option Dual Moonroof
20:54:21 - Skipping Duplicate Option Remote Trunk Release
20:54:21 - /var/app/video_pre_processor/assets/hvo/options_fe_audio_file_55.wav PlayTime:2.35
20:54:21 - /var/app/video_pre_processor/assets/hvo/options_fe_audio_file_337.wav PlayTime:1.28
20:54:21 - /var/app/video_pre_processor/assets/hvo/options_fe_audio_file_238.wav PlayTime:1.2
20:54:21 - /var/app/video_pre_processor/assets/hvo/options_fe_audio_file_1349.wav PlayTime:1.56
20:54:21 - /var/app/video_pre_processor/assets/hvo/options_fe_audio_file_219.wav PlayTime:1.59
20:54:21 - /var/app/video_pre_processor/assets/hvo/options_fe_audio_file_70.wav PlayTime:1.7
20:54:21 - /var/app/video_pre_processor/assets/hvo/options_fe_audio_file_296.wav PlayTime:2.17
20:54:21 - /var/app/video_pre_processor/assets/hvo/options_fe_audio_file_242.wav PlayTime:1.33
20:54:21 - /var/app/video_pre_processor/assets/hvo/options_fe_audio_file_82.wav PlayTime:1.18
20:54:21 - /var/app/video_pre_processor/assets/hvo/options_fe_audio_file_202.wav PlayTime:1.23
20:54:21 - /var/app/video_pre_processor/assets/hvo/options_fe_audio_file_272.wav PlayTime:1.44
20:54:21 - ======= ALL Options  ========== 
null
20:54:21 - /var/www/html/clients/108530/audio/F3A2D55E-AE80-015E-5755-1768B614947A_option.wav
20:54:21 - /usr/bin/sox /var/app/video_pre_processor/assets/hvo/options_fe_audio_file_55.wav /var/app/video_pre_processor/assets/hvo/options_fe_audio_file_337.wav /var/app/video_pre_processor/assets/hvo/options_fe_audio_file_238.wav /var/app/video_pre_processor/assets/hvo/options_fe_audio_file_1349.wav /var/app/video_pre_processor/assets/hvo/options_fe_audio_file_219.wav /var/app/video_pre_processor/assets/hvo/options_fe_audio_file_70.wav /var/app/video_pre_processor/assets/hvo/options_fe_audio_file_296.wav /var/app/video_pre_processor/assets/hvo/options_fe_audio_file_242.wav /var/app/video_pre_processor/assets/hvo/options_fe_audio_file_82.wav /var/app/video_pre_processor/assets/hvo/options_fe_audio_file_202.wav /var/app/video_pre_processor/assets/hvo/options_fe_audio_file_272.wav /var/www/html/clients/108530/audio/F3A2D55E-AE80-015E-5755-1768B614947A_option.wav
20:54:21 - /var/www/html/clients/108530/audio/F3A2D55E-AE80-015E-5755-1768B614947A_option.wav PlayTime:17.02
20:54:21 - Skipping VTT for CARFAX - carfaxFile
20:54:21 - /var/app/video_pre_processor/assets/hvo/emotional_fe_audio_file_12.wav PlayTime:5.69
20:54:21 - /usr/bin/sox /var/app/video_pre_processor/assets/hvo/ie_fe_audio_file_21.wav /var/app/video_pre_processor/assets/hvo/year_fe_audio_file_66.wav /var/app/video_pre_processor/assets/hvo/model_name_fe_audio_file_157.wav /var/app/video_pre_processor/assets/hvo/model_fe_audio_file_157.wav /var/app/video_pre_processor/assets/hvo/price_fe_audio_file_18.wav /var/app/video_pre_processor/assets/hvo/miles_fe_audio_file_33.wav /var/www/html/clients/108530/audio/F3A2D55E-AE80-015E-5755-1768B614947A_option.wav /var/app/video_pre_processor/assets/hvo/emotional_fe_audio_file_12.wav /var/www/html/clients/108530/audio/F3A2D55E-AE80-015E-5755-1768B614947A_temp1.wav
20:54:21 - Return from CheckProfileVal function::0 - REPLACE_FULL_AUDIO - 
20:54:21 - Return from CheckProfileVal function::0 - REPLACE_FULL_AUDIO_NEW - 
20:54:21 - ========REPALCE AUDIO TRACK LISTING TYPE new \ n USED VALUE : 0 NEW AUDIO VALUE : { 0} ==============

20:54:21 - Video Length for audio merge: 0
20:54:21 - /root/bin/ffmpeg  -i /var/www/html/clients/108530/audio/F3A2D55E-AE80-015E-5755-1768B614947A.wav -f mp3 -ar 44100 -ab 320 -ac 2 -y /var/www/html/clients/108530/audio/F3A2D55E-AE80-015E-5755-1768B614947A.mp3
ffmpeg version N-109053-g9b13078c6a Copyright (c) 2000-2022 the FFmpeg developers
  built with gcc 5.4.0 (GCC)
  configuration: --prefix=/root/ffmpeg_build --pkg-config-flags=--static --extra-cflags=-I/root/ffmpeg_build/include --extra-ldflags=-L/root/ffmpeg_build/lib --extra-libs=-lpthread --extra-libs=-lm --bindir=/root/bin --enable-gpl --enable-libfdk_aac --enable-libfreetype --enable-libmp3lame --enable-libopus --enable-libvpx --enable-libx264 --enable-openssl --enable-libx265 --enable-nonfree --enable-libvidstab
  libavutil      57. 42.100 / 57. 42.100
  libavcodec     59. 52.101 / 59. 52.101
  libavformat    59. 34.101 / 59. 34.101
  libavdevice    59.  8.101 / 59.  8.101
  libavfilter     8. 50.100 /  8. 50.100
  libswscale      6.  8.112 /  6.  8.112
  libswresample   4.  9.100 /  4.  9.100
  libpostproc    56.  7.100 / 56.  7.100
Guessed Channel Layout for Input Stream #0.0 : stereo
Input #0, wav, from '/var/www/html/clients/108530/audio/F3A2D55E-AE80-015E-5755-1768B614947A.wav':
  Duration: 00:00:38.92, bitrate: 1411 kb/s
  Stream #0:0: Audio: pcm_s16le ([1][0][0][0] / 0x0001), 44100 Hz, 2 channels, s16, 1411 kb/s
Stream mapping:
  Stream #0:0 -> #0:0 (pcm_s16le (native) -> mp3 (libmp3lame))
Press [q] to stop, [?] for help
[libmp3lame @ 0x4d93480] Bitrate 320 is extremely low, maybe you mean 320k
The bitrate parameter is set too low. It takes bits/s as argument, not kbits/s
Output #0, mp3, to '/var/www/html/clients/108530/audio/F3A2D55E-AE80-015E-5755-1768B614947A.mp3':
  Metadata:
    TSSE            : Lavf59.34.101
  Stream #0:0: Audio: mp3, 44100 Hz, stereo, s16p, 0 kb/s
    Metadata:
      encoder         : Lavc59.52.101 libmp3lame
size=       0kB time=-577014:32:22.77 bitrate=  -0.0kbits/s speed=N/A    
size=     103kB time=00:00:06.55 bitrate= 128.8kbits/s speed=13.1x    
size=     201kB time=00:00:12.82 bitrate= 128.1kbits/s speed=12.8x    
size=     256kB time=00:00:19.09 bitrate= 109.8kbits/s speed=12.7x    
size=     256kB time=00:00:25.33 bitrate=  82.8kbits/s speed=12.6x    
size=     256kB time=00:00:31.58 bitrate=  66.4kbits/s speed=12.6x    
size=     512kB time=00:00:37.95 bitrate= 110.5kbits/s speed=12.6x    
size=     609kB time=00:00:38.89 bitrate= 128.2kbits/s speed=12.6x    
video:0kB audio:609kB subtitle:0kB other streams:0kB global headers:0kB muxing overhead: 0.040598%
20:54:24 - /var/app/video_pre_processor/assets/vidbot/_files/audio/Jazz-4.mp3 PlayTime:885.42
20:54:24 - Using Jazz-4.mp3 - /var/app/video_pre_processor/assets/vidbot/_files/audio/Jazz-4.mp3
20:54:24 - BG MUSIC FILE /var/app/video_pre_processor/assets/vidbot/_files/audio/Jazz-4.mp3 

20:54:24 - BG AUDIO CLIENT OVELAY VALUE : 0 

20:54:24 - /var/www/html/clients/108530/audio/F3A2D55E-AE80-015E-5755-1768B614947A.wav PlayTime:38.92
20:54:24 - VParent - VOLEN:40.92 | /var/www/html/clients/108530/audio/F3A2D55E-AE80-015E-5755-1768B614947A.mp3 | /var/app/video_pre_processor/assets/vidbot/_files/audio/Jazz-4.mp3 | /var/www/html/clients/108530/audio/F3A2D55E-AE80-015E-5755-1768B614947A.wav
20:54:24 - AUDIO PROCESS RETURN VALUE: - 1
20:54:24 - update message_remote_queue set video_process_start = '2024-06-15 20:54:24' where queue_id = 284441
20:54:25 - CLIENT INFO DATA 
{"client_id":"108530","client_fk":"EA7B2E43-0A88-AFD3-D256-5F8AB469D9DA","client_rftp_id":"2347976","client_ilot_id":"3202437","client_cc_id":"6000410","client_name":"Zeigler Hyundai of Racine","client_active":"1","client_regen":"0","client_desc":"","client_createdate":"2022-02-01 20:33:16","client_enddate":"","client_update":"2022-02-01 20:33:16","client_demo":"0","client_email_forward":"","client_salesperson_name":"","client_address":"13313 Washington Ave","client_city":"Mount Pleasant","client_state":"WI","client_zip":"53177","client_phone":"6085581692","client_url":"www.zeiglerhyundairacine.com","client_yt_uname":"","client_yt_pwd":"","client_md5":"f7e0e40f0b56b88687dab5d3a3dc1228","client_yt_verified":"0","client_yt_error":"0","client_video_size":"HDLARGE","client_tts_vm":"2","client_video_style":"RANDOM","client_mobile":"1","client_lat_lng":"","client_acc_id":"100000","SHOW_CARSTORY":"0"}
20:54:25 - File Downloaded http://gcsimages.storage.googleapis.com/clients/108530/library/map.jpg - /var/www/html/clients/108530/library/map.jpg - FileSize:57.98 K
20:54:25 - Map Exists: /var/www/html/clients/108530/library/map.jpg
20:54:25 - Checking CUSTOM_INTRO
20:54:25 - Checking CUSTOM_OUTRO
20:54:25 - ================CREATE VIDEO START =========== 

20:54:25 - ================VIDEO JSON GEN START ==============
20:54:25 - Video Size 360
20:54:25 - ===========Video Theme font ================Dinot
20:54:25 - ==========Video fk : ==============F3A2D55E-AE80-015E-5755-1768B614947A
20:54:25 - ==============AUDIO VIDEO CONFIG : =========={"BG_MUSIC":"Jazz-4","THEME_BG_COLOR":"ffffff","THEME_ACCENTS_COLOR":"532380","THEME_FONT_COLOR":"444444","THEME_FONT":"Dinot","THEME_STYLE":"Ren","BG_VOL_LEVEL":"0.25","AUDIO_VO":"","VIDEO_SIZE":"VIDEO_LARGE","CUSTOM_INTRO":"","CUSTOM_OUTRO":"","THEME_KEY":"100000_0_Auto_Default_0_ALL","THEME_RANK":"2","THEME_CONFIG":"RESELLER_CONFIG","OLD_BG_STYLE":"0"}
20:54:25 - CLIENT FKEY :  EA7B2E43-0A88-AFD3-D256-5F8AB469D9DA  VIDEO FKEY :  F3A2D55E-AE80-015E-5755-1768B614947A  VEHICLE FKEY :   
20:54:25 - INFO:: Video Type:SS Video Size:360 
20:54:25 - Return from CheckProfileVal function::0 - DISPLAY_MILEAGE - NO
20:54:25 - Return from CheckProfileVal function::0 - DISPLAY_MILEAGE - NO
20:54:25 - Return from CheckProfileVal function::0 - DISPLAY_PRICE - NO
20:54:25 - Return from CheckProfileVal function::0 - DISPLAY_PRICE - NO
20:54:25 - ==================ClipsGen START  =====================

20:54:25 - Return from CheckProfileVal function::0 - AUDIO_VO - NO_VO
20:54:25 - Return from CheckProfileVal function::0 - AUDIO_VO - NO_VO
20:54:25 - Return from CheckProfileVal function::0 - AUDIO_VO - LIVE_VO
20:54:25 - Return from CheckProfileVal function::0 - AUDIO_VO - LIVE_VO
20:54:25 - Return from CheckProfileVal function::0 - DISPLAY_OPTIONS - NO
20:54:25 - Return from CheckProfileVal function::0 - DISPLAY_OPTIONS - NO
20:54:25 - Return from CheckProfileVal function::0 - DISPLAY_PRICE - NO
20:54:25 - Return from CheckProfileVal function::0 - DISPLAY_PRICE - NO
20:54:25 - Return from CheckProfileVal function::0 - DISABLE_PRICE - YES
20:54:25 - Return from CheckProfileVal function::0 - DISPLAY_MILEAGE - NO
20:54:25 - Return from CheckProfileVal function::0 - DISPLAY_MILEAGE - NO
20:54:25 - Return from CheckProfileVal function::0 - DISPLAY_INFO - NO
20:54:25 - Return from CheckProfileVal function::0 - DISPLAY_INFO - NO
20:54:25 - Return from CheckProfileVal function::0 - DISPLAY_TITLE_WSNAME - NO
20:54:25 - Return from CheckProfileVal function::0 - DISPLAY_TITLE_WSNAME - NO
20:54:25 - Return from CheckProfileVal function::0 - DISPLAY_ALL_OVERLAYS - NO
20:54:25 - Return from CheckProfileVal function::0 - DISPLAY_ALL_OVERLAYS - NO
20:54:25 - Return from CheckProfileVal function::0 - DISPLAY_MAP - NO
20:54:25 - Return from CheckProfileVal function::0 - DISPLAY_MAP - NO
20:54:25 297 - ShellApp::ResizeImage - /var/www/html/clients/108530/library/map.jpg - /var/www/html/clients/108530/library/width_map_360.jpg - 640
20:54:25 - Check Height 409.6  0 - Image Type: 2
20:54:25 276 - ShellApp::CropJPEGImage - 640/325 - 409- 42 

20:54:25 - MAP : /var/www/html/clients/108530/library/map_360.jpg :  FILE SIZE : 125577
20:54:25 - =========THEME STYLE-FONT :Ren - Din  ============
20:54:25 - /usr/bin/sox  /var/app/video_pre_processor/assets/music/silence_3.wav /var/www/html/clients/108530/audio/F3A2D55E-AE80-015E-5755-1768B614947A.wav /var/www/html/clients/108530/audio/F3A2D55E-AE80-015E-5755-1768B614947A_info_audio.wav
20:54:25 - /var/app/video_pre_processor/assets/vidbot/_files/audio/Jazz-4.mp3 PlayTime:885.42
20:54:25 - Return from CheckProfileVal function::0 - BG_MUSIC_OVER_ALL_CLIPS - YES
20:54:25 - Return from CheckProfileVal function::0 - BG_MUSIC_OVER_ALL_CLIPS - YES
20:54:25 - AUDIO TIMER: 
{"INTRO":0,"YEAR":2.85,"MODEL":4.73,"HIGH":5.7,"PRICE":10.690000000000001,"MILE":13.590000000000002,"ALL_OPTIONS":{"* General Options Intro":16.200000000000003,"Back-Up Camera":18.550000000000004,"Power Liftgate":19.830000000000005,"LED Headlights":21.030000000000005,"Navigation System":22.590000000000003,"ANTI-LOCK BRAKING SYSTEM":24.180000000000003,"Steering wheel audio controls":25.880000000000003,"Power Passenger Seat":28.050000000000004,"All Wheel Drive":29.380000000000003,"Keyless Entry":30.560000000000002,"Remote Engine Start":31.790000000000003},"OPTIONS":18.200000000000003,"OPTIONS_AUD_LENGTH":17.02,"ENDFILE":33.230000000000004}
20:54:25 - ===================ClipsGen END  ======================== 

20:54:25 - INFO:: VIDEO JSON : "F3A2D55E-AE80-015E-5755-1768B614947A.json"
20:54:25 - node /var/app/Vidbot-V2/dist/vidbot.js --input /var/www/html/clients/108530/video/F3A2D55E-AE80-015E-5755-1768B614947A.json --log debug > /var/www/html/clients/108530/video/F3A2D55E-AE80-015E-5755-1768B614947A.log
21:00:00 - Generated Video File./var/www/html/clients/108530/video/F3A2D55E-AE80-015E-5755-1768B614947A.mp4
21:00:00 - INFO:: Generated Video File./var/www/html/clients/108530/video/F3A2D55E-AE80-015E-5755-1768B614947A.mp4
21:00:00 - INFO:: Sprite & Bookmark Option(s) not enabled
21:00:00 - ================VIDEO JSON GEN END RETURN VALUE : 1 ============== 
21:00:00 - ================CREATE VIDEO END =========== 
 ERROR : { 0}
21:00:00 - Start Time:0
21:00:00 - 0##2.85##Looking for the right vehicle? Check out
21:00:00 - 2.85##4.73##The 2024
21:00:00 - 4.73##5.7##Santa Fe
21:00:00 - 5.7##10.69##Style. Quality Performance. Value. Need we say more?
21:00:00 - 10.69##13.59##and it is priced below $50000
21:00:00 - 13.59##16.2##This Vehicle has less than 100 miles
21:00:00 - Replacing VTT String * General Options Intro to Here are some of this Vehicle's great options
21:00:00 - 16.2##18.55##Here are some of this Vehicle's great options
21:00:00 - 18.55##19.83##Back-Up Camera
21:00:00 - 19.83##21.03##Power Liftgate
21:00:00 - 21.03##22.59##LED Headlights
21:00:00 - 22.59##24.18##Navigation System
21:00:00 - 24.18##25.88##ANTI-LOCK BRAKING SYSTEM
21:00:00 - 25.88##28.05##Steering wheel audio controls
21:00:00 - 28.05##29.38##Power Passenger Seat
21:00:00 - 29.38##30.56##All Wheel Drive
21:00:00 - 30.56##31.79##Keyless Entry
21:00:00 - 31.79##33.23##Remote Engine Start
21:00:00 - 33.23##38.92##If you like it online you'll love it in your driveway.  Take it for a spin today.
21:00:00 - Curl Response - {"error":"Video key not found [F3A2D55E-AE80-015E-5755-1768B614947A]"}
21:00:00 - Contents - /postVTTString/ -  - 
0##2.85##Looking for the right vehicle? Check out|||2.85##4.73##The 2024|||4.73##5.7##Santa Fe|||5.7##10.69##Style. Quality Performance. Value. Need we say more?|||10.69##13.59##and it is priced below $50000|||13.59##16.2##This Vehicle has less than 100 miles|||16.2##18.55##Here are some of this Vehicle's great options|||18.55##19.83##Back-Up Camera|||19.83##21.03##Power Liftgate|||21.03##22.59##LED Headlights|||22.59##24.18##Navigation System|||24.18##25.88##ANTI-LOCK BRAKING SYSTEM|||25.88##28.05##Steering wheel audio controls|||28.05##29.38##Power Passenger Seat|||29.38##30.56##All Wheel Drive|||30.56##31.79##Keyless Entry|||31.79##33.23##Remote Engine Start|||33.23##38.92##If you like it online you'll love it in your driveway.  Take it for a spin today.
21:00:00 - VIDEO JSON GEN RETURN VALUE: - 0
21:00:00 - update message_remote_queue set error=0, video = 1, error_message = concat( "", error_message ), process_start = '2024-06-15 20:54:21', audio_process_start = '2024-06-15 20:54:21', audio_process_end = '2024-06-15 20:54:24', video_process_start ='2024-06-15 20:54:24', video_process_end='2024-06-15 21:00:00' where queue_id = 284441
21:00:00 - ==92 - 1 Elapsed Time 339.56 ==

21:00:00 - update queue_status set stat_last_update=NOW(), type_cnt = 92, type_loop_cnt = 1296 where type_val = 'V10'
21:00:00 - Curl Response - {"code":200,"status":"Success:PostServerProcessDetails Posted For IP [209.59.156.167] and Process [V10]"}
21:00:00 - Contents - /postServerProcessDetails/ - Success:PostServerProcessDetails Posted For IP [209.59.156.167] and Process [V10] - 200
21:00:00 - update queue_status set stat_last_update=NOW(), type_cnt = 92, type_loop_cnt = 1296 where type_val = 'V10'
21:00:00 - Curl Response - {"code":200,"status":"Success:PostServerProcessDetails Posted For IP [209.59.156.167] and Process [V10]"}
21:00:00 - Contents - /postServerProcessDetails/ - Success:PostServerProcessDetails Posted For IP [209.59.156.167] and Process [V10] - 200
21:00:00 - ========== 92  - 585 mins 381.59315217391 Video Process / Start:2024-06-15 06:08:02 / Mod:9/16======
21:00:01 - Fetching  Video Jobs Mod Val : 9 Mod Limit : 16 Queue ID : 0 

21:00:01 - ========select * from message_remote_queue, hvo_data where queue_id%16 = 9 and image = 1 and video = 0 and error = 0 and hvo_queue_id = queue_id   order by high_priority_row desc, queue_id asc limit 1==================count =0
21:00:01 - update queue_status set stat_last_update=NOW(), type_cnt = 92, type_loop_cnt = 1297 where type_val = 'V10'
21:00:02 - Curl Response - {"code":200,"status":"Success:PostServerProcessDetails Posted For IP [209.59.156.167] and Process [V10]"}
21:00:02 - Contents - /postServerProcessDetails/ - Success:PostServerProcessDetails Posted For IP [209.59.156.167] and Process [V10] - 200
21:00:02 - ========== 92  - 585 mins 381.59315217391 Video Process / Start:2024-06-15 06:08:02 / Mod:9/16======
21:00:17 - Fetching  Video Jobs Mod Val : 9 Mod Limit : 16 Queue ID : 0 

21:00:17 - ========select * from message_remote_queue, hvo_data where queue_id%16 = 9 and image = 1 and video = 0 and error = 0 and hvo_queue_id = queue_id   order by high_priority_row desc, queue_id asc limit 1==================count =0
21:00:17 - update queue_status set stat_last_update=NOW(), type_cnt = 92, type_loop_cnt = 1298 where type_val = 'V10'
21:00:17 - Curl Response - {"code":200,"status":"Success:PostServerProcessDetails Posted For IP [209.59.156.167] and Process [V10]"}
21:00:17 - Contents - /postServerProcessDetails/ - Success:PostServerProcessDetails Posted For IP [209.59.156.167] and Process [V10] - 200
21:00:17 - ========== 92  - 585 mins 381.59315217391 Video Process / Start:2024-06-15 06:08:02 / Mod:9/16======
21:00:32 - Fetching  Video Jobs Mod Val : 9 Mod Limit : 16 Queue ID : 0 

21:00:32 - ========select * from message_remote_queue, hvo_data where queue_id%16 = 9 and image = 1 and video = 0 and error = 0 and hvo_queue_id = queue_id   order by high_priority_row desc, queue_id asc limit 1==================count =0
21:00:32 - update queue_status set stat_last_update=NOW(), type_cnt = 92, type_loop_cnt = 1299 where type_val = 'V10'
21:00:32 - Curl Response - {"code":200,"status":"Success:PostServerProcessDetails Posted For IP [209.59.156.167] and Process [V10]"}
21:00:32 - Contents - /postServerProcessDetails/ - Success:PostServerProcessDetails Posted For IP [209.59.156.167] and Process [V10] - 200
21:00:32 - ========== 92  - 585 mins 381.59315217391 Video Process / Start:2024-06-15 06:08:02 / Mod:9/16======
21:00:47 - Fetching  Video Jobs Mod Val : 9 Mod Limit : 16 Queue ID : 0 

21:00:47 - ========select * from message_remote_queue, hvo_data where queue_id%16 = 9 and image = 1 and video = 0 and error = 0 and hvo_queue_id = queue_id   order by high_priority_row desc, queue_id asc limit 1==================count =0
21:00:47 - update queue_status set stat_last_update=NOW(), type_cnt = 92, type_loop_cnt = 1300 where type_val = 'V10'
21:00:47 - Curl Response - {"code":200,"status":"Success:PostServerProcessDetails Posted For IP [209.59.156.167] and Process [V10]"}
21:00:47 - Contents - /postServerProcessDetails/ - Success:PostServerProcessDetails Posted For IP [209.59.156.167] and Process [V10] - 200
21:00:47 - ========== 92  - 585 mins 381.59315217391 Video Process / Start:2024-06-15 06:08:02 / Mod:9/16======
21:01:02 - Fetching  Video Jobs Mod Val : 9 Mod Limit : 16 Queue ID : 0 

21:01:02 - ========select * from message_remote_queue, hvo_data where queue_id%16 = 9 and image = 1 and video = 0 and error = 0 and hvo_queue_id = queue_id   order by high_priority_row desc, queue_id asc limit 1==================count =0
21:01:02 - update queue_status set stat_last_update=NOW(), type_cnt = 92, type_loop_cnt = 1301 where type_val = 'V10'
21:01:02 - Curl Response - {"code":200,"status":"Success:PostServerProcessDetails Posted For IP [209.59.156.167] and Process [V10]"}
21:01:02 - Contents - /postServerProcessDetails/ - Success:PostServerProcessDetails Posted For IP [209.59.156.167] and Process [V10] - 200
21:01:02 - ========== 92  - 585 mins 381.59315217391 Video Process / Start:2024-06-15 06:08:02 / Mod:9/16======
21:01:17 - Fetching  Video Jobs Mod Val : 9 Mod Limit : 16 Queue ID : 0 

21:01:17 - ========select * from message_remote_queue, hvo_data where queue_id%16 = 9 and image = 1 and video = 0 and error = 0 and hvo_queue_id = queue_id   order by high_priority_row desc, queue_id asc limit 1==================count =0
21:01:17 - update queue_status set stat_last_update=NOW(), type_cnt = 92, type_loop_cnt = 1302 where type_val = 'V10'
21:01:17 - Curl Response - {"code":200,"status":"Success:PostServerProcessDetails Posted For IP [209.59.156.167] and Process [V10]"}
21:01:17 - Contents - /postServerProcessDetails/ - Success:PostServerProcessDetails Posted For IP [209.59.156.167] and Process [V10] - 200
21:01:17 - ========== 92  - 585 mins 381.59315217391 Video Process / Start:2024-06-15 06:08:02 / Mod:9/16======
21:01:32 - Fetching  Video Jobs Mod Val : 9 Mod Limit : 16 Queue ID : 0 

21:01:32 - ========select * from message_remote_queue, hvo_data where queue_id%16 = 9 and image = 1 and video = 0 and error = 0 and hvo_queue_id = queue_id   order by high_priority_row desc, queue_id asc limit 1==================count =0
21:01:32 - update queue_status set stat_last_update=NOW(), type_cnt = 92, type_loop_cnt = 1303 where type_val = 'V10'
21:01:33 - Curl Response - {"code":200,"status":"Success:PostServerProcessDetails Posted For IP [209.59.156.167] and Process [V10]"}
21:01:33 - Contents - /postServerProcessDetails/ - Success:PostServerProcessDetails Posted For IP [209.59.156.167] and Process [V10] - 200
21:01:33 - ========== 92  - 585 mins 381.59315217391 Video Process / Start:2024-06-15 06:08:02 / Mod:9/16======
21:01:48 - Fetching  Video Jobs Mod Val : 9 Mod Limit : 16 Queue ID : 0 

21:01:48 - ========select * from message_remote_queue, hvo_data where queue_id%16 = 9 and image = 1 and video = 0 and error = 0 and hvo_queue_id = queue_id   order by high_priority_row desc, queue_id asc limit 1==================count =0
21:01:48 - update queue_status set stat_last_update=NOW(), type_cnt = 92, type_loop_cnt = 1304 where type_val = 'V10'
21:01:48 - Curl Response - {"code":200,"status":"Success:PostServerProcessDetails Posted For IP [209.59.156.167] and Process [V10]"}
21:01:48 - Contents - /postServerProcessDetails/ - Success:PostServerProcessDetails Posted For IP [209.59.156.167] and Process [V10] - 200
21:01:48 - ========== 92  - 585 mins 381.59315217391 Video Process / Start:2024-06-15 06:08:02 / Mod:9/16======
21:02:03 - Fetching  Video Jobs Mod Val : 9 Mod Limit : 16 Queue ID : 0 

21:02:03 - ========select * from message_remote_queue, hvo_data where queue_id%16 = 9 and image = 1 and video = 0 and error = 0 and hvo_queue_id = queue_id   order by high_priority_row desc, queue_id asc limit 1==================count =0
21:02:03 - update queue_status set stat_last_update=NOW(), type_cnt = 92, type_loop_cnt = 1305 where type_val = 'V10'
21:02:03 - Curl Response - {"code":200,"status":"Success:PostServerProcessDetails Posted For IP [209.59.156.167] and Process [V10]"}
21:02:03 - Contents - /postServerProcessDetails/ - Success:PostServerProcessDetails Posted For IP [209.59.156.167] and Process [V10] - 200
21:02:03 - ========== 92  - 585 mins 381.59315217391 Video Process / Start:2024-06-15 06:08:02 / Mod:9/16======
21:02:18 - Fetching  Video Jobs Mod Val : 9 Mod Limit : 16 Queue ID : 0 

21:02:18 - ========select * from message_remote_queue, hvo_data where queue_id%16 = 9 and image = 1 and video = 0 and error = 0 and hvo_queue_id = queue_id   order by high_priority_row desc, queue_id asc limit 1==================count =0
21:02:18 - update queue_status set stat_last_update=NOW(), type_cnt = 92, type_loop_cnt = 1306 where type_val = 'V10'
21:02:18 - Curl Response - {"code":200,"status":"Success:PostServerProcessDetails Posted For IP [209.59.156.167] and Process [V10]"}
21:02:18 - Contents - /postServerProcessDetails/ - Success:PostServerProcessDetails Posted For IP [209.59.156.167] and Process [V10] - 200
21:02:18 - ========== 92  - 585 mins 381.59315217391 Video Process / Start:2024-06-15 06:08:02 / Mod:9/16======
21:02:33 - Fetching  Video Jobs Mod Val : 9 Mod Limit : 16 Queue ID : 0 

21:02:33 - ========select * from message_remote_queue, hvo_data where queue_id%16 = 9 and image = 1 and video = 0 and error = 0 and hvo_queue_id = queue_id   order by high_priority_row desc, queue_id asc limit 1==================count =0
21:02:33 - update queue_status set stat_last_update=NOW(), type_cnt = 92, type_loop_cnt = 1307 where type_val = 'V10'
21:02:33 - Curl Response - {"code":200,"status":"Success:PostServerProcessDetails Posted For IP [209.59.156.167] and Process [V10]"}
21:02:33 - Contents - /postServerProcessDetails/ - Success:PostServerProcessDetails Posted For IP [209.59.156.167] and Process [V10] - 200
21:02:33 - ========== 92  - 585 mins 381.59315217391 Video Process / Start:2024-06-15 06:08:02 / Mod:9/16======
21:02:48 - Fetching  Video Jobs Mod Val : 9 Mod Limit : 16 Queue ID : 0 

21:02:48 - ========select * from message_remote_queue, hvo_data where queue_id%16 = 9 and image = 1 and video = 0 and error = 0 and hvo_queue_id = queue_id   order by high_priority_row desc, queue_id asc limit 1==================count =0
21:02:48 - update queue_status set stat_last_update=NOW(), type_cnt = 92, type_loop_cnt = 1308 where type_val = 'V10'
21:02:49 - Curl Response - {"code":200,"status":"Success:PostServerProcessDetails Posted For IP [209.59.156.167] and Process [V10]"}
21:02:49 - Contents - /postServerProcessDetails/ - Success:PostServerProcessDetails Posted For IP [209.59.156.167] and Process [V10] - 200
21:02:49 - ========== 92  - 585 mins 381.59315217391 Video Process / Start:2024-06-15 06:08:02 / Mod:9/16======
21:03:04 - Fetching  Video Jobs Mod Val : 9 Mod Limit : 16 Queue ID : 0 

21:03:04 - ========select * from message_remote_queue, hvo_data where queue_id%16 = 9 and image = 1 and video = 0 and error = 0 and hvo_queue_id = queue_id   order by high_priority_row desc, queue_id asc limit 1==================count =0
21:03:04 - update queue_status set stat_last_update=NOW(), type_cnt = 92, type_loop_cnt = 1309 where type_val = 'V10'
21:03:04 - Curl Response - {"code":200,"status":"Success:PostServerProcessDetails Posted For IP [209.59.156.167] and Process [V10]"}
21:03:04 - Contents - /postServerProcessDetails/ - Success:PostServerProcessDetails Posted For IP [209.59.156.167] and Process [V10] - 200
21:03:04 - ========== 92  - 585 mins 381.59315217391 Video Process / Start:2024-06-15 06:08:02 / Mod:9/16======
21:03:19 - Fetching  Video Jobs Mod Val : 9 Mod Limit : 16 Queue ID : 0 

21:03:19 - ========select * from message_remote_queue, hvo_data where queue_id%16 = 9 and image = 1 and video = 0 and error = 0 and hvo_queue_id = queue_id   order by high_priority_row desc, queue_id asc limit 1==================count =0
21:03:19 - update queue_status set stat_last_update=NOW(), type_cnt = 92, type_loop_cnt = 1310 where type_val = 'V10'
21:03:19 - Curl Response - {"code":200,"status":"Success:PostServerProcessDetails Posted For IP [209.59.156.167] and Process [V10]"}
21:03:19 - Contents - /postServerProcessDetails/ - Success:PostServerProcessDetails Posted For IP [209.59.156.167] and Process [V10] - 200
21:03:19 - ========== 92  - 585 mins 381.59315217391 Video Process / Start:2024-06-15 06:08:02 / Mod:9/16======
21:03:34 - Fetching  Video Jobs Mod Val : 9 Mod Limit : 16 Queue ID : 0 

21:03:34 - ========select * from message_remote_queue, hvo_data where queue_id%16 = 9 and image = 1 and video = 0 and error = 0 and hvo_queue_id = queue_id   order by high_priority_row desc, queue_id asc limit 1==================count =0
21:03:34 - update queue_status set stat_last_update=NOW(), type_cnt = 92, type_loop_cnt = 1311 where type_val = 'V10'
21:03:34 - Curl Response - {"code":200,"status":"Success:PostServerProcessDetails Posted For IP [209.59.156.167] and Process [V10]"}
21:03:34 - Contents - /postServerProcessDetails/ - Success:PostServerProcessDetails Posted For IP [209.59.156.167] and Process [V10] - 200
21:03:34 - ========== 92  - 585 mins 381.59315217391 Video Process / Start:2024-06-15 06:08:02 / Mod:9/16======
21:03:49 - Fetching  Video Jobs Mod Val : 9 Mod Limit : 16 Queue ID : 0 

21:03:49 - ========select * from message_remote_queue, hvo_data where queue_id%16 = 9 and image = 1 and video = 0 and error = 0 and hvo_queue_id = queue_id   order by high_priority_row desc, queue_id asc limit 1==================count =0
21:03:49 - update queue_status set stat_last_update=NOW(), type_cnt = 92, type_loop_cnt = 1312 where type_val = 'V10'
21:03:49 - Curl Response - {"code":200,"status":"Success:PostServerProcessDetails Posted For IP [209.59.156.167] and Process [V10]"}
21:03:49 - Contents - /postServerProcessDetails/ - Success:PostServerProcessDetails Posted For IP [209.59.156.167] and Process [V10] - 200
21:03:49 - ========== 92  - 585 mins 381.59315217391 Video Process / Start:2024-06-15 06:08:02 / Mod:9/16======
21:04:04 - Fetching  Video Jobs Mod Val : 9 Mod Limit : 16 Queue ID : 0 

21:04:04 - ========select * from message_remote_queue, hvo_data where queue_id%16 = 9 and image = 1 and video = 0 and error = 0 and hvo_queue_id = queue_id   order by high_priority_row desc, queue_id asc limit 1==================count =0
21:04:04 - update queue_status set stat_last_update=NOW(), type_cnt = 92, type_loop_cnt = 1313 where type_val = 'V10'
21:04:04 - Curl Response - {"code":200,"status":"Success:PostServerProcessDetails Posted For IP [209.59.156.167] and Process [V10]"}
21:04:04 - Contents - /postServerProcessDetails/ - Success:PostServerProcessDetails Posted For IP [209.59.156.167] and Process [V10] - 200
21:04:04 - ========== 92  - 585 mins 381.59315217391 Video Process / Start:2024-06-15 06:08:02 / Mod:9/16======
21:04:19 - Fetching  Video Jobs Mod Val : 9 Mod Limit : 16 Queue ID : 0 

21:04:19 - ========select * from message_remote_queue, hvo_data where queue_id%16 = 9 and image = 1 and video = 0 and error = 0 and hvo_queue_id = queue_id   order by high_priority_row desc, queue_id asc limit 1==================count =0
21:04:19 - update queue_status set stat_last_update=NOW(), type_cnt = 92, type_loop_cnt = 1314 where type_val = 'V10'
21:04:20 - Curl Response - {"code":200,"status":"Success:PostServerProcessDetails Posted For IP [209.59.156.167] and Process [V10]"}
21:04:20 - Contents - /postServerProcessDetails/ - Success:PostServerProcessDetails Posted For IP [209.59.156.167] and Process [V10] - 200
21:04:20 - ========== 92  - 585 mins 381.59315217391 Video Process / Start:2024-06-15 06:08:02 / Mod:9/16======
21:04:35 - Fetching  Video Jobs Mod Val : 9 Mod Limit : 16 Queue ID : 0 

21:04:35 - ========select * from message_remote_queue, hvo_data where queue_id%16 = 9 and image = 1 and video = 0 and error = 0 and hvo_queue_id = queue_id   order by high_priority_row desc, queue_id asc limit 1==================count =1
21:04:35 - Processing Auto VideoFKEY:FAA35C0A-297A-9F8D-F54A-FC103FAE45F2 - QueueID:284457 
21:04:35 - CLIENT INFO  CLIENT_FK  : 97DBE343-8319-3380-1883-F317E0D625A7 ,CLIENT_INFO :{"client_id":"5717","client_fk":"97DBE343-8319-3380-1883-F317E0D625A7","client_acc_id":"3","client_name":"Toyota Subaru of Corvallis","client_desc":"Toyota Subaru Scion of Corvallis","client_color":"000000","client_player_color":"","client_textcolor":"","client_tts_text":"","client_tts_options":"","client_inactive":"0","client_createdate":"2016-06-02 14:36:39","client_enddate":"","client_update":"2020-02-20 16:03:16","client_email_forward":"","client_dealer_id":"2175326","client_franchise_number":"","client_salesperson_name":"","client_address":"800 NW 5Th Street","client_city":"Corvallis","client_state":"OR","client_zip":"97330","client_phone":"(541) 754-1515","client_url":"www.toyotaofcorvallis.com // http://www.subaruofcorvallis.com","client_fb_id":"0","client_km":"0","client_special_price":"0","client_demo":"0","client_utube_flag":"0","client_cvo":"0","client_tts":"0","client_live_uv":"0","client_live_overlay":"2","client_av":"0","client_gv":"0","client_af":"0","client_video_email":"0","client_carfax":"0","client_intro":"0","client_outro":"0","client_slider":"0","client_music_id":"1","client_ei":"0","client_tts_vm":"2","client_hvo":"1","client_mobile":"0","client_portal":"0","client_instavid":"0","client_new_stock_video":"0","client_vidmagnet":"0","client_auto_play":"1","client_cpo":"1","client_vid_stab":"0","client_vp":"0","client_xl":"0","client_carstory":"0","client_360_player":"0","client_ece":"0","client_capture_video":"0","client_new_cvo":"0","client_pip":"1","client_account_id":"1","client_crm_email":"","client_crm_dealer_id":"","client_crm_dealer_key":"","client_archive":"0","client_damage_photo":"0","client_package":"4","client_video_size":"HDLARGE","client_video_style":"FULL","client_lat_lng":"","client_comments":"","SHOW_CARSTORY":"0"}
21:04:35 - Rest Call: /client/videoDetails/97DBE343-8319-3380-1883-F317E0D625A7?video_key=FAA35C0A-297A-9F8D-F54A-FC103FAE45F2
21:04:35 - Curl Response - {"video_id":"34355218","video_fk":"FAA35C0A-297A-9F8D-F54A-FC103FAE45F2","vehicle_id":"31591453","video_client_id":"5717","video_script":"Delivers 43 Highway MPG and 43 City MPG! This TOYOTA AVALON boasts a Gas\/Electric I-4 2.5 L\/152 engine powering this Variable transmission. Window Grid Antenna, Wheels: 18  x 8.0  Super Chrome Alloy, Vehicle Stability Control (VSC) Electronic Stability Control (ESC).* This TOYOTA AVALON Features the Following Options *Variable Intermittent Wipers, Turn-By-Turn Navigation Directions, Trunk Rear Cargo Access, Trip Computer, Transmission: Continuously Variable -inc: sequential shift mode, Transmission w\/Driver Selectable Mode and Sequential Shift Control, Tires: P235\/45R18 AS, Tire Pressure Monitor System (TPMS) Tire Specific Low Tire Pressure Warning, Strut Front Suspension w\/Coil Springs, Steel Spare Wheel.","video_tts_script":"Delivers 43 Highway MPG and 43 City MPG! This TOYOTA AVALON boasts a Gas\/Electric I-4 2.5 L\/152 engine powering this Variable transmission. Window Grid Antenna, Wheels: 18  x 8.0  Super Chrome Alloy, Vehicle Stability Control (VSC) Electronic Stability Control (ESC).* This TOYOTA AVALON Features the Following Options *Variable Intermittent Wipers, Turn-By-Turn Navigation Directions, Trunk Rear Cargo Access, Trip Computer, Transmission: Continuously Variable -inc: sequential shift mode, Transmission w\/Driver Selectable Mode and Sequential Shift Control, Tires: P235\/45R18 AS, Tire Pressure Monitor System (TPMS) Tire Specific Low Tire Pressure Warning, Strut Front Suspension w\/Coil Springs, Steel Spare Wheel.","video_flv":"","video_create_time":"2021-08-04 16:33:27","video_update_time":"2024-06-15 21:03:42","audio_length":"0","video_options":"Front Wheel Drive,Power Steering,ABS,4-Wheel Disc Brakes,Brake Assist,Lithium Ion Traction Battery,Aluminum Wheels,Tires - Front Performance,Tires - Rear Performance,Temporary Spare Tire,Sun\/Moonroof,Generic Sun\/Moonroof,Heated Mirrors,Power Mirror(s),Integrated Turn Signal Mirrors,Rear Defrost,Intermittent Wipers,Variable Speed Intermittent Wipers,Daytime Running Lights,Automatic Headlights,LED Headlights,Automatic Highbeams,AM\/FM Stereo,Navigation System,Premium Sound System,Satellite Radio,MP3 Player,Bluetooth Connection,Telematics,Remote Engine Start,Auxiliary Audio Input,HD Radio,WiFi Hotspot,Smart Device Integration,Requires Subscription,Steering Wheel Audio Controls,Auxiliary Audio Input,Heated Front Seat(s),Driver Adjustable Lumbar,Passenger Adjustable Lumbar,Cooled Front Seat(s),Power Driver Seat,Power Passenger Seat,Bucket Seats,Seat Memory,Power Driver Seat,Power Passenger Seat,Pass-Through Rear Seat,Heated Rear Seat(s),Rear Bench Seat","video_custom_flag":"0","video_title":"2021 TOYOTA AVALON Corvallis, OR","video_local_title":"2021 TOYOTA AVALON Corvallis, OR","video_frames":"4","video_image_url":"\/avavids\/1\/clients\/5717\/images\/FAA35C0A-297A-9F8D-F54A-FC103FAE45F2_","video_pin_id":"0","video_tts_flag":"1","video_hvo_flag":"0","video_share":"1","video_default_flag":"1","video_imgsrc_urls":"https:\/\/content.homenetiol.com\/stock_images\/5\/2021TOC26_640\/2021TOC260001_640_01.jpg,https:\/\/content.homenetiol.com\/stock_images\/5\/2021TOC26_640\/2021TOC260001_640_01.jpg,https:\/\/content.homenetiol.com\/stock_images\/5\/2021TOC26_640\/2021TOC260001_640_01.jpg,https:\/\/content.homenetiol.com\/stock_images\/5\/2021TOC26_640\/2021TOC260001_640_01.jpg","video_thumbnail_url":"","video_rendering_flag":"0","video_error_rendering":"","video_view_cnt":"115","video_delete_flag":"0","video_delete_time":"","video_batch_proc":"0","video_meta_data":"","video_custom_default":"0","video_external_flv":"https:\/\/gcsimages.s3.us-west-001.backblazeb2.com\/clients\/5717\/video\/FAA35C0A-297A-9F8D-F54A-FC103FAE45F2.mp4","video_external_wflv":"","video_external_iflv":"","video_custom_uploaded":"0","vehicle_client_id":"5717","vehicle_fkey":"BFDE4752-2339-EA20-2659-3AD22CF851F0","vehicle_uid":"1201467468","vehicle_vin":"4T1DA1AB2MU010513","vehicle_stock":"TC211702","vehicle_year":"2021","vehicle_make":"TOYOTA","vehicle_model":"AVALON","vehicle_trim":"Hybrid Limited","vehicle_price":"45873","vehicle_mileage":"10","vehicle_int_color":"GRAPHITE LEATHER TRIM","vehicle_ext_color":"CELESTIAL SILVER METALLIC","vehicle_body_type":"HYBRID LIMITED FWD","vehicle_listing_type":"New","vehicle_citympg":"","vehicle_hwympg":"","vehicle_combmpg":"","vehicle_cylinders":"0","vehicle_engine_size":"2.5","vehicle_trans":"Variable","vehicle_drivetrain":"FWD","vehicle_passengers":"0","vehicle_doors":"4","vehicle_certified":"0","vehicle_special":"0","vehicle_options":"Front Wheel Drive,Power Steering,ABS,4-Wheel Disc Brakes,Brake Assist,Lithium Ion Traction Battery,Aluminum Wheels,Tires - Front Performance,Tires - Rear Performance,Temporary Spare Tire,Sun\/Moonroof,Generic Sun\/Moonroof,Heated Mirrors,Power Mirror(s),Integrated Turn Signal Mirrors,Rear Defrost,Intermittent Wipers,Variable Speed Intermittent Wipers,Daytime Running Lights,Automatic Headlights,LED Headlights,Automatic Highbeams,AM\/FM Stereo,Navigation System,Premium Sound System,Satellite Radio,MP3 Player,Bluetooth Connection,Telematics,Remote Engine Start,Auxiliary Audio Input,HD Radio,WiFi Hotspot,Smart Device Integration,Requires Subscription,Steering Wheel Audio Controls,Auxiliary Audio Input,Heated Front Seat(s),Driver Adjustable Lumbar,Passenger Adjustable Lumbar,Cooled Front Seat(s),Power Driver Seat,Power Passenger Seat,Bucket Seats,Seat Memory,Power Driver Seat,Power Passenger Seat,Pass-Through Rear Seat,Heated Rear Seat(s),Rear Bench Seat","vehicle_desc":"2021 TOYOTA AVALON Corvallis, ORStock# TC211702541-754-1515www.toyotaofcorvallis.comFor more information on this vehicle and our full inventory, call 541-754-1515.Toyota Subaru of Corvallis800 NW 5Th StCorvallis, OR 97330Delivers 43 Highway MPG and 43 City MPG! This TOYOTA AVALON boasts a Gas\/Electric I-4 2.5 L\/152 engine powering this Variable transmission. Window Grid Antenna, Wheels: 18  x 8.0  Super Chrome Alloy, Vehicle Stability Control (VSC) Electronic Stability Control (ESC).* This TOYOTA AVALON Features the Following Options *Variable Intermittent Wipers, Turn-By-Turn Navigation Directions, Trunk Rear Cargo Access, Trip Computer, Transmission: Continuously Variable -inc: sequential shift mode, Transmission w\/Driver Selectable Mode and Sequential Shift Control, Tires: P235\/45R18 AS, Tire Pressure Monitor System (TPMS) Tire Specific Low Tire Pressure Warning, Strut Front Suspension w\/Coil Springs, Steel Spare Wheel.","vehicle_chrome_style_id":"","vehicle_model_num":"","vehicle_stock_video":"0","vehicle_img_cnt":"4","veh_more_info":"","vehicle_create_date":"2021-08-04 16:33:27","vehicle_update_date":"2024-06-14 20:23:30","vehicle_md5":"d6440e6d042c7a0b32b948900b6bbe30","vehicle_status":"U","vehicle_add":"0","vehicle_delete_flag":"0","vehicle_delete_time":""}
21:04:35 - Rest Call: /client/getAudioVideoConfig/97DBE343-8319-3380-1883-F317E0D625A7?listing_type=New&video_type=Auto&certified=0&vehicle_make=TOYOTA
21:04:35 - Curl Response - {"BG_MUSIC":"Groove","THEME_BG_COLOR":"ffffff","THEME_ACCENTS_COLOR":"047ec1","THEME_FONT_COLOR":"000000","THEME_FONT":"Din","THEME_STYLE":"Ren","BG_VOL_LEVEL":"0.25","AUDIO_VO":"VO","VIDEO_SIZE":"VIDEO_LARGE","CUSTOM_INTRO":"","CUSTOM_OUTRO":"","THEME_KEY":"3_0_Auto_Default_0_ALL","THEME_RANK":"2","THEME_CONFIG":"RESELLER_CONFIG","DISABLE_PRICE":"YES","DISPLAY_INFO":"NO","DISPLAY_MAP":"NO","DISPLAY_MILEAGE":"NO","DISPLAY_OPTIONS":"NO","DISPLAY_PRICE":"NO","OLD_BG_STYLE":"0"}
21:04:35 - Return from CheckProfileVal function::1 - DISABLE_PRICE - YES
21:04:35 - Return from CheckProfileVal function::0 - DISABLE_MILEAGE - YES
21:04:35 - Return from CheckProfileVal function::0 - DISABLE_CARSTORY - YES
21:04:35 - Config Information for FAA35C0A-297A-9F8D-F54A-FC103FAE45F2 - Width:640 - CPO:1/0 - CF:0 - CS:0  - Intro:0 - Outro:0 - Ovleray:2 -THEME:3_0_Auto_Default_0_ALL
21:04:35 - https://content.homenetiol.com/stock_images/5/2021TOC26_640/2021TOC260001_640_01.jpg /var/www/html/clients/5717/images/FAA35C0A-297A-9F8D-F54A-FC103FAE45F2_1.jpg
21:04:35 - https://content.homenetiol.com/stock_images/5/2021TOC26_640/2021TOC260001_640_01.jpg /var/www/html/clients/5717/images/FAA35C0A-297A-9F8D-F54A-FC103FAE45F2_2.jpg
21:04:35 - https://content.homenetiol.com/stock_images/5/2021TOC26_640/2021TOC260001_640_01.jpg /var/www/html/clients/5717/images/FAA35C0A-297A-9F8D-F54A-FC103FAE45F2_3.jpg
21:04:35 - https://content.homenetiol.com/stock_images/5/2021TOC26_640/2021TOC260001_640_01.jpg /var/www/html/clients/5717/images/FAA35C0A-297A-9F8D-F54A-FC103FAE45F2_4.jpg
21:04:35 - Image Count 4
21:04:35 - Setting Female English VO Constants | 0 | 0
21:04:35 - ====HVO Value:1, Audio Value:0===
21:04:35 - Return from CheckProfileVal function::0 - AUDIO_INTRO - 
21:04:35 - Return from CheckProfileVal function::0 - AUDIO_OUTRO - 
21:04:35 - ================Process HVO=========== 
 1
21:04:35 - ================CLIENT SELECT TTS VM VALUE=========== 
 2
21:04:35 - 2 - 2 - /var/app/video_pre_processor/assets/hvo/
21:04:35 - Setting Female English VO Constants | 0 | 2
21:04:35 - HVO Soap Call Method - AudoListWMIE 

21:04:35 - Getting Text For Audio Files
21:04:35 - HVO Soap Call Method - AudoListTWMIE 

21:04:35 - Getting Text For Audio Files emotionalFile 16
21:04:35 - HVO Soap Call Method - GetTTScripts 

21:04:35 - Getting Text For Audio Files introEmotionalFile 23
21:04:35 - HVO Soap Call Method - GetTTScripts 

21:04:35 - Getting Text For Audio Files scriptFile 24
21:04:35 - HVO Soap Call Method - GetTTScripts 

21:04:35 - ================TTS VM VALUE=========== 
 2
21:04:35 - ================GetVOFiles=========== 
 {"OptionFiles":[{"option_str":"* General Options Intro","option_file":"http:\/\/hvo.flickfusion.net\/audio\/options\/options_fe_audio_file_55.mp3","option_saftey":1},{"option_str":"Steering wheel audio controls","option_file":"http:\/\/hvo.flickfusion.net\/audio\/options\/options_fe_audio_file_296.mp3","option_saftey":1},{"option_str":"Power Passenger Seat","option_file":"http:\/\/hvo.flickfusion.net\/audio\/options\/options_fe_audio_file_242.mp3","option_saftey":1},{"option_str":"Remote Engine Start","option_file":"http:\/\/hvo.flickfusion.net\/audio\/options\/options_fe_audio_file_272.mp3","option_saftey":1},{"option_str":"Navigation System","option_file":"http:\/\/hvo.flickfusion.net\/audio\/options\/options_fe_audio_file_219.mp3","option_saftey":1},{"option_str":"ANTI-LOCK BRAKING SYSTEM","option_file":"http:\/\/hvo.flickfusion.net\/audio\/options\/options_fe_audio_file_70.mp3","option_saftey":1},{"option_str":"Power Passenger Seat","option_file":"http:\/\/hvo.flickfusion.net\/audio\/options\/options_fe_audio_file_242.mp3","option_saftey":1},{"option_str":"LED Headlights","option_file":"http:\/\/hvo.flickfusion.net\/audio\/options\/options_fe_audio_file_1349.mp3","option_saftey":1},{"option_str":"Bluetooth","option_file":"http:\/\/hvo.flickfusion.net\/audio\/options\/options_fe_audio_file_846.mp3","option_saftey":1},{"option_str":"Power Steering","option_file":"http:\/\/hvo.flickfusion.net\/audio\/options\/options_fe_audio_file_244.mp3","option_saftey":1},{"option_str":"Aluminum Wheels","option_file":"http:\/\/hvo.flickfusion.net\/audio\/options\/options_fe_audio_file_83.mp3","option_saftey":1},{"option_str":"4-Wheel Disc Brakes","option_file":"http:\/\/hvo.flickfusion.net\/audio\/options\/options_fe_audio_file_63.mp3","option_saftey":1},{"option_str":"AM\/FM STEREO RADIO","option_file":"http:\/\/hvo.flickfusion.net\/audio\/options\/options_fe_audio_file_69.mp3","option_saftey":1},{"option_str":"Rear Defrost","option_file":"http:\/\/hvo.flickfusion.net\/audio\/options\/options_fe_audio_file_259.mp3","option_saftey":1},{"option_str":"Premium Sound System","option_file":"http:\/\/hvo.flickfusion.net\/audio\/options\/options_fe_audio_file_248.mp3","option_saftey":1},{"option_str":"FRONT WHEEL DRIVE","option_file":"http:\/\/hvo.flickfusion.net\/audio\/options\/options_fe_audio_file_170.mp3","option_saftey":1},{"option_str":"Bucket Seats","option_file":"http:\/\/hvo.flickfusion.net\/audio\/options\/options_fe_audio_file_107.mp3","option_saftey":1},{"option_str":"MP3 Player","option_file":"http:\/\/hvo.flickfusion.net\/audio\/options\/options_fe_audio_file_211.mp3","option_saftey":1},{"option_str":"Brake Assist","option_file":"http:\/\/hvo.flickfusion.net\/audio\/options\/options_fe_audio_file_104.mp3","option_saftey":1},{"option_str":"Daytime Running Lights","option_file":"http:\/\/hvo.flickfusion.net\/audio\/options\/options_fe_audio_file_142.mp3","option_saftey":1},{"option_str":"Satellite Radio","option_file":"http:\/\/hvo.flickfusion.net\/audio\/options\/options_fe_audio_file_279.mp3","option_saftey":1},{"option_str":"Auxiliary Audio Input","option_file":"http:\/\/hvo.flickfusion.net\/audio\/options\/options_fe_audio_file_95.mp3","option_saftey":1},{"option_str":"HD Radio","option_file":"http:\/\/hvo.flickfusion.net\/audio\/options\/options_fe_audio_file_452.mp3","option_saftey":1},{"option_str":"Auxiliary Audio Input","option_file":"http:\/\/hvo.flickfusion.net\/audio\/options\/options_fe_audio_file_95.mp3","option_saftey":1},{"option_str":"Seat Memory","option_file":"http:\/\/hvo.flickfusion.net\/audio\/options\/options_fe_audio_file_280.mp3","option_saftey":1},{"option_str":"Power Driver Seat","option_file":"http:\/\/hvo.flickfusion.net\/audio\/options\/options_fe_audio_file_237.mp3","option_saftey":1},{"option_str":"Power Driver Seat","option_file":"http:\/\/hvo.flickfusion.net\/audio\/options\/options_fe_audio_file_237.mp3","option_saftey":1},{"option_str":"Integrated Turn Signal Mirrors","option_file":"http:\/\/hvo.flickfusion.net\/audio\/options\/options_fe_audio_file_198.mp3","option_saftey":1},{"option_str":"Heated Mirrors","option_file":"http:\/\/hvo.flickfusion.net\/audio\/options\/options_fe_audio_file_7.mp3","option_saftey":1},{"option_str":"Pass-Through Rear Seat","option_file":"http:\/\/hvo.flickfusion.net\/audio\/options\/options_fe_audio_file_227.mp3","option_saftey":1},{"option_str":"Telematics","option_file":"http:\/\/hvo.flickfusion.net\/audio\/options\/options_fe_audio_file_303.mp3","option_saftey":1},{"option_str":"Tires - Rear Performance","option_file":"http:\/\/hvo.flickfusion.net\/audio\/options\/options_fe_audio_file_316.mp3","option_saftey":1},{"option_str":"Tires - Front Performance","option_file":"http:\/\/hvo.flickfusion.net\/audio\/options\/options_fe_audio_file_311.mp3","option_saftey":1},{"option_str":"REAR BENCH SEAT","option_file":"http:\/\/hvo.flickfusion.net\/audio\/options\/options_fe_audio_file_693.mp3","option_saftey":1},{"option_str":"Variable Speed Intermittent Wipers","option_file":"http:\/\/hvo.flickfusion.net\/audio\/options\/options_fe_audio_file_325.mp3","option_saftey":1},{"option_str":"WiFi Hotspot","option_file":"http:\/\/hvo.flickfusion.net\/audio\/options\/options_fe_audio_file_1501.mp3","option_saftey":1},{"option_str":"Smart Device Integration","option_file":"http:\/\/hvo.flickfusion.net\/audio\/options\/options_fe_audio_file_1480.mp3","option_saftey":1},{"option_str":"Sun\/Moonroof","option_file":"http:\/\/hvo.flickfusion.net\/audio\/options\/options_fe_audio_file_1484.mp3","option_saftey":1}],"yearFile":"http:\/\/hvo.flickfusion.net\/audio\/year\/year_fe_audio_file_56.mp3","makeFile":"http:\/\/hvo.flickfusion.net\/audio\/makes\/make_name_fe_audio_file_49.mp3","modelFile":"http:\/\/hvo.flickfusion.net\/audio\/mdlnames\/model_name_fe_audio_file_200.mp3","modelHighlightFile":"http:\/\/hvo.flickfusion.net\/audio\/models\/model_fe_audio_file_200.mp3","styleFile":"","bodytypeFile":"","transFile":"http:\/\/hvo.flickfusion.net\/audio\/domain_transmission\/transmission_fe_audio_file_4.mp3","engineFile":"http:\/\/hvo.flickfusion.net\/audio\/domain_enginesize\/enginesize_fe_audio_file_5.mp3","cylindersFile":"","driveTrainFile":"http:\/\/hvo.flickfusion.net\/audio\/domain_drivetrain\/drivetrain_fe_audio_file_1.mp3","priceFile":"","mileageFile":"http:\/\/hvo.flickfusion.net\/audio\/mileage\/miles_fe_audio_file_33.mp3","carfaxFile":"","emotionalFile":"http:\/\/hvo.flickfusion.net\/audio\/emotional\/emotional_fe_audio_file_16.mp3","introEmotionalFile":"http:\/\/hvo.flickfusion.net\/audio\/emotional\/ie_fe_audio_file_23.mp3","scriptFile":"http:\/\/hvo.flickfusion.net\/audio\/domain_scripts\/script_fe_audio_file_24.mp3","statusCode":"1","statusMessage":"Audio Files Sent"}
21:04:35 - /var/www/html/clients/5717/audio/FAA35C0A-297A-9F8D-F54A-FC103FAE45F2.wav
21:04:35 - ================Process HVO SOAP CALL CMD=========== 
 /usr/bin/sox
 STATUS CODE 
 1
21:04:35 - /var/app/video_pre_processor/assets/hvo/ie_fe_audio_file_23.wav PlayTime:2.35
21:04:35 - /var/app/video_pre_processor/assets/hvo/year_fe_audio_file_56.wav PlayTime:1.85
21:04:35 - /var/app/video_pre_processor/assets/hvo/model_name_fe_audio_file_200.wav PlayTime:0.86
21:04:35 - /var/app/video_pre_processor/assets/hvo/model_fe_audio_file_200.wav PlayTime:7.99
21:04:35 - Skipping VTT for BODY - bodytypeFile
21:04:35 - Skipping VTT for PRICE - priceFile
21:04:35 - KM Check : 10 | 0
21:04:35 - /var/app/video_pre_processor/assets/hvo/miles_fe_audio_file_33.wav PlayTime:2.61
21:04:36 - Curl Response - {"interior":["Navigation System","Smart Device Integration","Hd Radio","Satellite Radio","Auxiliary Audio Input","Premium Sound System","Steering Wheel Audio Controls","Cooled Seats","Mp3 Player","Power Steering","Pass-through Rear Seat","Power Driver Seat","Sun\/moonroof","Wifi Hotspot","Power Passenger Seat","Rear Bench Seat","Bucket Seats","Rear Defrost","Seat Memory","Telematics","Am\/fm Stereo Radio","Rear Defroster"],"exterior":["Moonroof","Heated Mirrors","Aluminum Wheels","Remote Engine Start","Power Mirrors","Brake Assist","Intermittent Wipers","Daytime Running Lights","4-wheel Disc Brakes","Auto Headlight On\/off","Front Wheel Drive","Integrated Turn Signal Mirrors","Led Headlights","Variable Speed Intermittent Wipers"]}
21:04:36 - ============={"interior":["Navigation System","Smart Device Integration","Hd Radio","Satellite Radio","Auxiliary Audio Input","Premium Sound System","Steering Wheel Audio Controls","Cooled Seats","Mp3 Player","Power Steering","Pass-through Rear Seat","Power Driver Seat","Sun\/moonroof","Wifi Hotspot","Power Passenger Seat","Rear Bench Seat","Bucket Seats","Rear Defrost","Seat Memory","Telematics","Am\/fm Stereo Radio","Rear Defroster"],"exterior":["Moonroof","Heated Mirrors","Aluminum Wheels","Remote Engine Start","Power Mirrors","Brake Assist","Intermittent Wipers","Daytime Running Lights","4-wheel Disc Brakes","Auto Headlight On\/off","Front Wheel Drive","Integrated Turn Signal Mirrors","Led Headlights","Variable Speed Intermittent Wipers"]}===============
21:04:36 - Skipping Duplicate Option Auxiliary Audio Input
21:04:36 - Skipping Duplicate Option Power Driver Seat
21:04:36 - Skipping Duplicate Option Power Passenger Seat
21:04:36 - /var/app/video_pre_processor/assets/hvo/options_fe_audio_file_55.wav PlayTime:2.35
21:04:36 - /var/app/video_pre_processor/assets/hvo/options_fe_audio_file_7.wav PlayTime:1.02
21:04:36 - /var/app/video_pre_processor/assets/hvo/options_fe_audio_file_83.wav PlayTime:1.2
21:04:36 - /var/app/video_pre_processor/assets/hvo/options_fe_audio_file_272.wav PlayTime:1.44
21:04:36 - /var/app/video_pre_processor/assets/hvo/options_fe_audio_file_104.wav PlayTime:1.12
21:04:36 - /var/app/video_pre_processor/assets/hvo/options_fe_audio_file_142.wav PlayTime:1.57
21:04:36 - /var/app/video_pre_processor/assets/hvo/options_fe_audio_file_63.wav PlayTime:1.57
21:04:36 - /var/app/video_pre_processor/assets/hvo/options_fe_audio_file_170.wav PlayTime:1.18
21:04:36 - /var/app/video_pre_processor/assets/hvo/options_fe_audio_file_198.wav PlayTime:1.99
21:04:36 - /var/app/video_pre_processor/assets/hvo/options_fe_audio_file_1349.wav PlayTime:1.56
21:04:36 - /var/app/video_pre_processor/assets/hvo/options_fe_audio_file_325.wav PlayTime:2.66
21:04:36 - ======= ALL Options  ========== 
null
21:04:36 - /var/www/html/clients/5717/audio/FAA35C0A-297A-9F8D-F54A-FC103FAE45F2_option.wav
21:04:36 - /usr/bin/sox /var/app/video_pre_processor/assets/hvo/options_fe_audio_file_55.wav /var/app/video_pre_processor/assets/hvo/options_fe_audio_file_7.wav /var/app/video_pre_processor/assets/hvo/options_fe_audio_file_83.wav /var/app/video_pre_processor/assets/hvo/options_fe_audio_file_272.wav /var/app/video_pre_processor/assets/hvo/options_fe_audio_file_104.wav /var/app/video_pre_processor/assets/hvo/options_fe_audio_file_142.wav /var/app/video_pre_processor/assets/hvo/options_fe_audio_file_63.wav /var/app/video_pre_processor/assets/hvo/options_fe_audio_file_170.wav /var/app/video_pre_processor/assets/hvo/options_fe_audio_file_198.wav /var/app/video_pre_processor/assets/hvo/options_fe_audio_file_1349.wav /var/app/video_pre_processor/assets/hvo/options_fe_audio_file_325.wav /var/www/html/clients/5717/audio/FAA35C0A-297A-9F8D-F54A-FC103FAE45F2_option.wav
21:04:36 - /var/www/html/clients/5717/audio/FAA35C0A-297A-9F8D-F54A-FC103FAE45F2_option.wav PlayTime:17.65
21:04:36 - Skipping VTT for CARFAX - carfaxFile
21:04:36 - /var/app/video_pre_processor/assets/hvo/emotional_fe_audio_file_16.wav PlayTime:4.99
21:04:36 - /usr/bin/sox /var/app/video_pre_processor/assets/hvo/ie_fe_audio_file_23.wav /var/app/video_pre_processor/assets/hvo/year_fe_audio_file_56.wav /var/app/video_pre_processor/assets/hvo/model_name_fe_audio_file_200.wav /var/app/video_pre_processor/assets/hvo/model_fe_audio_file_200.wav /var/app/video_pre_processor/assets/hvo/miles_fe_audio_file_33.wav /var/www/html/clients/5717/audio/FAA35C0A-297A-9F8D-F54A-FC103FAE45F2_option.wav /var/app/video_pre_processor/assets/hvo/emotional_fe_audio_file_16.wav /var/www/html/clients/5717/audio/FAA35C0A-297A-9F8D-F54A-FC103FAE45F2_temp1.wav
21:04:36 - Return from CheckProfileVal function::0 - REPLACE_FULL_AUDIO - 
21:04:36 - Return from CheckProfileVal function::0 - REPLACE_FULL_AUDIO_NEW - 
21:04:36 - ========REPALCE AUDIO TRACK LISTING TYPE new \ n USED VALUE : 0 NEW AUDIO VALUE : { 0} ==============

21:04:36 - Video Length for audio merge: 0
21:04:36 - /root/bin/ffmpeg  -i /var/www/html/clients/5717/audio/FAA35C0A-297A-9F8D-F54A-FC103FAE45F2.wav -f mp3 -ar 44100 -ab 320 -ac 2 -y /var/www/html/clients/5717/audio/FAA35C0A-297A-9F8D-F54A-FC103FAE45F2.mp3
ffmpeg version N-109053-g9b13078c6a Copyright (c) 2000-2022 the FFmpeg developers
  built with gcc 5.4.0 (GCC)
  configuration: --prefix=/root/ffmpeg_build --pkg-config-flags=--static --extra-cflags=-I/root/ffmpeg_build/include --extra-ldflags=-L/root/ffmpeg_build/lib --extra-libs=-lpthread --extra-libs=-lm --bindir=/root/bin --enable-gpl --enable-libfdk_aac --enable-libfreetype --enable-libmp3lame --enable-libopus --enable-libvpx --enable-libx264 --enable-openssl --enable-libx265 --enable-nonfree --enable-libvidstab
  libavutil      57. 42.100 / 57. 42.100
  libavcodec     59. 52.101 / 59. 52.101
  libavformat    59. 34.101 / 59. 34.101
  libavdevice    59.  8.101 / 59.  8.101
  libavfilter     8. 50.100 /  8. 50.100
  libswscale      6.  8.112 /  6.  8.112
  libswresample   4.  9.100 /  4.  9.100
  libpostproc    56.  7.100 / 56.  7.100
Guessed Channel Layout for Input Stream #0.0 : stereo
Input #0, wav, from '/var/www/html/clients/5717/audio/FAA35C0A-297A-9F8D-F54A-FC103FAE45F2.wav':
  Duration: 00:00:38.31, bitrate: 1411 kb/s
  Stream #0:0: Audio: pcm_s16le ([1][0][0][0] / 0x0001), 44100 Hz, 2 channels, s16, 1411 kb/s
Stream mapping:
  Stream #0:0 -> #0:0 (pcm_s16le (native) -> mp3 (libmp3lame))
Press [q] to stop, [?] for help
[libmp3lame @ 0x3fc3480] Bitrate 320 is extremely low, maybe you mean 320k
The bitrate parameter is set too low. It takes bits/s as argument, not kbits/s
Output #0, mp3, to '/var/www/html/clients/5717/audio/FAA35C0A-297A-9F8D-F54A-FC103FAE45F2.mp3':
  Metadata:
    TSSE            : Lavf59.34.101
  Stream #0:0: Audio: mp3, 44100 Hz, stereo, s16p, 0 kb/s
    Metadata:
      encoder         : Lavc59.52.101 libmp3lame
size=       0kB time=-577014:32:22.77 bitrate=  -0.0kbits/s speed=N/A    
size=     112kB time=00:00:07.13 bitrate= 128.3kbits/s speed=14.2x    
size=     223kB time=00:00:14.23 bitrate= 128.1kbits/s speed=14.2x    
size=     256kB time=00:00:21.39 bitrate=  98.0kbits/s speed=14.2x    
size=     256kB time=00:00:28.65 bitrate=  73.2kbits/s speed=14.3x    
size=     512kB time=00:00:35.91 bitrate= 116.8kbits/s speed=14.3x    
size=     599kB time=00:00:38.29 bitrate= 128.2kbits/s speed=14.4x    
video:0kB audio:599kB subtitle:0kB other streams:0kB global headers:0kB muxing overhead: 0.041234%
21:04:38 - /var/app/video_pre_processor/assets/vidbot/_files/audio/Groove.mp3 PlayTime:648.72
21:04:38 - Using Groove.mp3 - /var/app/video_pre_processor/assets/vidbot/_files/audio/Groove.mp3
21:04:38 - BG MUSIC FILE /var/app/video_pre_processor/assets/vidbot/_files/audio/Groove.mp3 

21:04:38 - BG AUDIO CLIENT OVELAY VALUE : 2 

21:04:38 - /var/www/html/clients/5717/audio/FAA35C0A-297A-9F8D-F54A-FC103FAE45F2.wav PlayTime:38.31
21:04:38 - VParent - VOLEN:40.31 | /var/www/html/clients/5717/audio/FAA35C0A-297A-9F8D-F54A-FC103FAE45F2.mp3 | /var/app/video_pre_processor/assets/vidbot/_files/audio/Groove.mp3 | /var/www/html/clients/5717/audio/FAA35C0A-297A-9F8D-F54A-FC103FAE45F2.wav
21:04:38 - AUDIO PROCESS RETURN VALUE: - 1
21:04:38 - update message_remote_queue set video_process_start = '2024-06-15 21:04:38' where queue_id = 284457
21:04:38 - CLIENT INFO DATA 
{"client_id":"5717","client_fk":"97DBE343-8319-3380-1883-F317E0D625A7","client_acc_id":"3","client_name":"Toyota Subaru of Corvallis","client_desc":"Toyota Subaru Scion of Corvallis","client_color":"000000","client_player_color":"","client_textcolor":"","client_tts_text":"","client_tts_options":"","client_inactive":"0","client_createdate":"2016-06-02 14:36:39","client_enddate":"","client_update":"2020-02-20 16:03:16","client_email_forward":"","client_dealer_id":"2175326","client_franchise_number":"","client_salesperson_name":"","client_address":"800 NW 5Th Street","client_city":"Corvallis","client_state":"OR","client_zip":"97330","client_phone":"(541) 754-1515","client_url":"www.toyotaofcorvallis.com \/\/ http:\/\/www.subaruofcorvallis.com","client_fb_id":"0","client_km":"0","client_special_price":"0","client_demo":"0","client_utube_flag":"0","client_cvo":"0","client_tts":"0","client_live_uv":"0","client_live_overlay":"2","client_av":"0","client_gv":"0","client_af":"0","client_video_email":"0","client_carfax":"0","client_intro":"0","client_outro":"0","client_slider":"0","client_music_id":"1","client_ei":"0","client_tts_vm":"2","client_hvo":"1","client_mobile":"0","client_portal":"0","client_instavid":"0","client_new_stock_video":"0","client_vidmagnet":"0","client_auto_play":"1","client_cpo":"1","client_vid_stab":"0","client_vp":"0","client_xl":"0","client_carstory":"0","client_360_player":"0","client_ece":"0","client_capture_video":"0","client_new_cvo":"0","client_pip":"1","client_account_id":"1","client_crm_email":"","client_crm_dealer_id":"","client_crm_dealer_key":"","client_archive":"0","client_damage_photo":"0","client_package":"4","client_video_size":"HDLARGE","client_video_style":"FULL","client_lat_lng":"","client_comments":"","SHOW_CARSTORY":"0"}
21:04:38 - Map Exists: /var/www/html/clients/5717/library/map.jpg
21:04:38 - Checking CUSTOM_INTRO
21:04:38 - Checking CUSTOM_OUTRO
21:04:38 - ================CREATE VIDEO START =========== 

21:04:38 - ================VIDEO JSON GEN START ==============
21:04:38 - Video Size 360
21:04:38 - ===========Video Theme font ================Dinot
21:04:38 - ==========Video fk : ==============FAA35C0A-297A-9F8D-F54A-FC103FAE45F2
21:04:38 - ==============AUDIO VIDEO CONFIG : =========={"BG_MUSIC":"Groove","THEME_BG_COLOR":"ffffff","THEME_ACCENTS_COLOR":"047ec1","THEME_FONT_COLOR":"000000","THEME_FONT":"Dinot","THEME_STYLE":"Ren","BG_VOL_LEVEL":"0.25","AUDIO_VO":"VO","VIDEO_SIZE":"VIDEO_LARGE","CUSTOM_INTRO":"","CUSTOM_OUTRO":"","THEME_KEY":"3_0_Auto_Default_0_ALL","THEME_RANK":"2","THEME_CONFIG":"RESELLER_CONFIG","DISABLE_PRICE":"YES","DISPLAY_INFO":"NO","DISPLAY_MAP":"NO","DISPLAY_MILEAGE":"NO","DISPLAY_OPTIONS":"NO","DISPLAY_PRICE":"NO","OLD_BG_STYLE":"0"}
21:04:38 - CLIENT FKEY :  97DBE343-8319-3380-1883-F317E0D625A7  VIDEO FKEY :  FAA35C0A-297A-9F8D-F54A-FC103FAE45F2  VEHICLE FKEY :   
21:04:38 - INFO:: Video Type:SS Video Size:360 
21:04:38 - Return from CheckProfileVal function::0 - DISPLAY_MILEAGE - NO
21:04:38 - Return from CheckProfileVal function::1 - DISPLAY_MILEAGE - NO
21:04:38 - ==================ClipsGen START  =====================

21:04:38 - Return from CheckProfileVal function::0 - AUDIO_VO - NO_VO
21:04:38 - Return from CheckProfileVal function::0 - AUDIO_VO - NO_VO
21:04:38 - Return from CheckProfileVal function::0 - AUDIO_VO - LIVE_VO
21:04:38 - Return from CheckProfileVal function::0 - AUDIO_VO - LIVE_VO
21:04:38 - Return from CheckProfileVal function::0 - DISPLAY_OPTIONS - NO
21:04:38 - Return from CheckProfileVal function::1 - DISPLAY_OPTIONS - NO
21:04:38 - Return from CheckProfileVal function::0 - DISPLAY_PRICE - NO
21:04:38 - Return from CheckProfileVal function::1 - DISPLAY_PRICE - NO
21:04:38 - Return from CheckProfileVal function::0 - DISPLAY_MILEAGE - NO
21:04:38 - Return from CheckProfileVal function::1 - DISPLAY_MILEAGE - NO
21:04:38 - Return from CheckProfileVal function::0 - DISPLAY_INFO - NO
21:04:38 - Return from CheckProfileVal function::1 - DISPLAY_INFO - NO
21:04:38 - Return from CheckProfileVal function::0 - DISPLAY_TITLE_WSNAME - NO
21:04:38 - Return from CheckProfileVal function::0 - DISPLAY_TITLE_WSNAME - NO
21:04:38 - Return from CheckProfileVal function::0 - DISPLAY_ALL_OVERLAYS - NO
21:04:38 - Return from CheckProfileVal function::0 - DISPLAY_ALL_OVERLAYS - NO
21:04:38 - Return from CheckProfileVal function::0 - DISPLAY_MAP - NO
21:04:38 - Return from CheckProfileVal function::1 - DISPLAY_MAP - NO
21:04:38 - =========THEME STYLE-FONT :Ren - Din  ============
21:04:38 - /var/app/video_pre_processor/assets/vidbot/_files/audio/Groove.mp3 PlayTime:648.72
21:04:38 - Return from CheckProfileVal function::0 - BG_MUSIC_OVER_ALL_CLIPS - YES
21:04:38 - Return from CheckProfileVal function::0 - BG_MUSIC_OVER_ALL_CLIPS - YES
21:04:38 - AUDIO TIMER: 
{"INTRO":0,"YEAR":2.35,"MODEL":4.2,"HIGH":5.0600000000000005,"MILE":13.05,"ALL_OPTIONS":{"* General Options Intro":15.66,"Heated Mirrors":18.01,"Aluminum Wheels":19.03,"Remote Engine Start":20.23,"Brake Assist":21.67,"Daytime Running Lights":22.790000000000003,"4-wheel Disc Brakes":24.360000000000003,"Front Wheel Drive":25.930000000000003,"Integrated Turn Signal Mirrors":27.110000000000003,"Led Headlights":29.1,"Variable Speed Intermittent Wipers":30.66},"OPTIONS":17.66,"OPTIONS_AUD_LENGTH":17.65,"ENDFILE":33.32}
21:04:38 - ===================ClipsGen END  ======================== 

21:04:38 - INFO:: VIDEO JSON : "FAA35C0A-297A-9F8D-F54A-FC103FAE45F2.json"
21:04:38 - node /var/app/Vidbot-V2/dist/vidbot.js --input /var/www/html/clients/5717/video/FAA35C0A-297A-9F8D-F54A-FC103FAE45F2.json --log debug > /var/www/html/clients/5717/video/FAA35C0A-297A-9F8D-F54A-FC103FAE45F2.log