{"client_id":"3642","client_fk":"E472404F-EA4B-5A98-15D6-25ED1DF7C4A4","client_acc_id":"221","client_name":"Luther Nissan Kia of Inver Grove","client_desc":"","client_color":"000000","client_player_color":"","client_textcolor":"","client_tts_text":"","client_tts_options":"","client_inactive":"0","client_createdate":"2014-11-12 13:30:14","client_enddate":"","client_update":"2024-01-15 08:58:25","client_email_forward":"sales@nissankia.lutherauto.com","client_dealer_id":"5881","client_franchise_number":"","client_salesperson_name":"Luther Nissan Kia of Inver Grove","client_address":"1470 East 50th Street","client_city":"Inver Grove Heights","client_state":"MN","client_zip":"55077","client_phone":"651-457-5757","client_url":"nissankia.lutherauto.com","client_fb_id":"","client_km":"0","client_special_price":"0","client_demo":"0","client_utube_flag":"1","client_cvo":"0","client_tts":"0","client_live_uv":"0","client_live_overlay":"0","client_av":"0","client_gv":"0","client_af":"0","client_video_email":"0","client_carfax":"0","client_intro":"1","client_outro":"1","client_slider":"0","client_music_id":"36","client_ei":"0","client_tts_vm":"2","client_hvo":"1","client_mobile":"0","client_portal":"0","client_instavid":"0","client_new_stock_video":"0","client_vidmagnet":"0","client_auto_play":"1","client_cpo":"1","client_vid_stab":"0","client_vp":"0","client_xl":"0","client_carstory":"0","client_360_player":"0","client_ece":"0","client_capture_video":"0","client_new_cvo":"0","client_pip":"1","client_account_id":"1","client_crm_email":"","client_crm_dealer_id":"","client_crm_dealer_key":"","client_archive":"0","client_damage_photo":"0","client_package":"2","client_video_size":"HDLARGE","client_video_style":"RANDOM","client_lat_lng":"44.8772224|-93.0762505","client_comments":"","SHOW_CARSTORY":"0"}
22:12:56 - Map Exists: /var/www/html/clients/3642/library/map.jpg
22:12:56 - /var/www/html/clients/3642/library/intro.mp4 PlayTime:8.13
22:12:56 - /var/www/html/clients/3642/library/outro.mp4 PlayTime:3.37
22:12:56 - Checking CUSTOM_INTRO
22:12:56 - Checking CUSTOM_OUTRO
22:12:56 - ================CREATE VIDEO START =========== 

22:12:56 - ================VIDEO JSON GEN START ==============
22:12:56 - Video Size 360
22:12:56 - ===========Video Theme font ================Dinot
22:12:56 - ==========Video fk : ==============694D5FCD-C839-EF08-0DEF-4C7E1D3301EA
22:12:56 - ==============AUDIO VIDEO CONFIG : =========={"BG_MUSIC":"RF11_Funky_1","THEME_BG_COLOR":"ffffff","THEME_ACCENTS_COLOR":"047ec1","THEME_FONT_COLOR":"000000","THEME_FONT":"Dinot","THEME_STYLE":"Ren","BG_VOL_LEVEL":"0.25","AUDIO_VO":"","VIDEO_SIZE":"VIDEO_LARGE","CUSTOM_INTRO":"","CUSTOM_OUTRO":"","THEME_KEY":"0_0_Auto_Default_0_ALL","THEME_RANK":"2","THEME_CONFIG":"GLOBAL_CONFIG","OLD_BG_STYLE":"0"}
22:12:56 - CLIENT FKEY :  E472404F-EA4B-5A98-15D6-25ED1DF7C4A4  VIDEO FKEY :  694D5FCD-C839-EF08-0DEF-4C7E1D3301EA  VEHICLE FKEY :   
22:12:56 - INFO:: Video Type:SS Video Size:360 
22:12:56 - Return from CheckProfileVal function::0 - DISPLAY_MILEAGE - NO
22:12:56 - Return from CheckProfileVal function::0 - DISPLAY_MILEAGE - NO
22:12:56 - Return from CheckProfileVal function::0 - DISPLAY_PRICE - NO
22:12:56 - Return from CheckProfileVal function::0 - DISPLAY_PRICE - NO
22:12:56 - ==================ClipsGen START  =====================

22:12:56 - Return from CheckProfileVal function::0 - AUDIO_VO - NO_VO
22:12:56 - Return from CheckProfileVal function::0 - AUDIO_VO - NO_VO
22:12:56 - Return from CheckProfileVal function::0 - AUDIO_VO - LIVE_VO
22:12:56 - Return from CheckProfileVal function::0 - AUDIO_VO - LIVE_VO
22:12:56 - Return from CheckProfileVal function::0 - DISPLAY_OPTIONS - NO
22:12:56 - Return from CheckProfileVal function::0 - DISPLAY_OPTIONS - NO
22:12:56 - Return from CheckProfileVal function::0 - DISPLAY_PRICE - NO
22:12:56 - Return from CheckProfileVal function::0 - DISPLAY_PRICE - NO
22:12:56 - Return from CheckProfileVal function::0 - DISABLE_PRICE - YES
22:12:56 - Return from CheckProfileVal function::0 - DISPLAY_MILEAGE - NO
22:12:56 - Return from CheckProfileVal function::0 - DISPLAY_MILEAGE - NO
22:12:56 - Return from CheckProfileVal function::0 - DISPLAY_INFO - NO
22:12:56 - Return from CheckProfileVal function::0 - DISPLAY_INFO - NO
22:12:56 - Return from CheckProfileVal function::0 - DISPLAY_TITLE_WSNAME - NO
22:12:56 - Return from CheckProfileVal function::0 - DISPLAY_TITLE_WSNAME - NO
22:12:56 - Return from CheckProfileVal function::0 - DISPLAY_ALL_OVERLAYS - NO
22:12:56 - Return from CheckProfileVal function::0 - DISPLAY_ALL_OVERLAYS - NO
22:12:56 - Return from CheckProfileVal function::0 - DISPLAY_MAP - NO
22:12:56 - Return from CheckProfileVal function::0 - DISPLAY_MAP - NO
22:12:56 - =========THEME STYLE-FONT :Ren - Din  ============
22:12:56 - /usr/bin/sox  /var/app/video_pre_processor/assets/music/silence_3.wav /var/www/html/clients/3642/audio/694D5FCD-C839-EF08-0DEF-4C7E1D3301EA.wav /var/www/html/clients/3642/audio/694D5FCD-C839-EF08-0DEF-4C7E1D3301EA_info_audio.wav
22:12:56 - /var/app/video_pre_processor/assets/vidbot/_files/audio/RF11_Funky_1.mp3 PlayTime:321.46
22:12:56 - Return from CheckProfileVal function::0 - BG_MUSIC_OVER_ALL_CLIPS - YES
22:12:56 - Return from CheckProfileVal function::0 - BG_MUSIC_OVER_ALL_CLIPS - YES
22:12:56 - AUDIO TIMER: 
{"INTRO":0,"YEAR":1.57,"MODEL":3.09,"HIGH":3.77,"PRICE":21.43,"MILE":24.33,"ALL_OPTIONS":{"* General Options Intro":27.57,"Heated Mirrors":29.92,"Rear Spoiler":30.94,"Brake Assist":32.04,"Stability Control":33.16,"Tire Pressure Monitor":34.41,"Steel Wheels":35.949999999999996,"Wheel Covers":37.38999999999999,"4-wheel Disc Brakes":38.699999999999996,"Front Wheel Drive":40.269999999999996,"Traction Control":41.449999999999996},"OPTIONS":29.57,"OPTIONS_AUD_LENGTH":15.18,"ENDFILE":42.76}
22:12:56 - ===================ClipsGen END  ======================== 

22:12:56 - INFO:: VIDEO JSON : "694D5FCD-C839-EF08-0DEF-4C7E1D3301EA.json"
22:12:56 - node /var/app/Vidbot-V2/dist/vidbot.js --input /var/www/html/clients/3642/video/694D5FCD-C839-EF08-0DEF-4C7E1D3301EA.json --log debug > /var/www/html/clients/3642/video/694D5FCD-C839-EF08-0DEF-4C7E1D3301EA.log
22:19:34 - Generated Video File./var/www/html/clients/3642/video/694D5FCD-C839-EF08-0DEF-4C7E1D3301EA.mp4
22:19:34 - INFO:: Generated Video File./var/www/html/clients/3642/video/694D5FCD-C839-EF08-0DEF-4C7E1D3301EA.mp4
22:19:34 - INFO:: Sprite & Bookmark Option(s) not enabled
22:19:34 - ================VIDEO JSON GEN END RETURN VALUE : 1 ============== 
22:19:34 - ================CREATE VIDEO END =========== 
 ERROR : { 0}
22:19:34 - Start Time:8.13
22:19:34 - 8.13##9.7##Come test drive
22:19:34 - 9.7##11.22##The 2015
22:19:34 - 11.22##11.9##Leaf
22:19:34 - 11.9##29.56##The Nissan Leaf or (Leading Environmentally friendly Affordable Family car) is an electric car you can truly feel good about driving. Zero emissions + zero gasoline = more green on the road and more green in your wallet!
22:19:34 - 29.56##32.46##and it is priced below $10000
22:19:34 - 32.46##35.7##This Vehicle has less than 80000 miles
22:19:34 - Replacing VTT String * General Options Intro to Here are some of this Vehicle's great options
22:19:34 - 35.7##38.05##Here are some of this Vehicle's great options
22:19:34 - 38.05##39.07##Heated Mirrors
22:19:34 - 39.07##40.17##Rear Spoiler
22:19:34 - 40.17##41.29##Brake Assist
22:19:34 - 41.29##42.54##Stability Control
22:19:34 - 42.54##44.08##Tire Pressure Monitor
22:19:34 - 44.08##45.52##Steel Wheels
22:19:34 - 45.52##46.83##Wheel Covers
22:19:34 - 46.83##48.4##4-wheel Disc Brakes
22:19:34 - 48.4##49.58##Front Wheel Drive
22:19:34 - 49.58##50.89##Traction Control
22:19:34 - 50.89##55.88##Is love at first sight really possible?  Let us know when you stop in
22:19:35 - Curl Response - {"code":200,"status":"VTT Updated"}
22:19:35 - Contents - /postVTTString/ - VTT Updated - 200
8.13##9.7##Come test drive|||9.7##11.22##The 2015|||11.22##11.9##Leaf|||11.9##29.56##The Nissan Leaf or (Leading Environmentally friendly Affordable Family car) is an electric car you can truly feel good about driving. Zero emissions + zero gasoline = more green on the road and more green in your wallet!|||29.56##32.46##and it is priced below $10000|||32.46##35.7##This Vehicle has less than 80000 miles|||35.7##38.05##Here are some of this Vehicle's great options|||38.05##39.07##Heated Mirrors|||39.07##40.17##Rear Spoiler|||40.17##41.29##Brake Assist|||41.29##42.54##Stability Control|||42.54##44.08##Tire Pressure Monitor|||44.08##45.52##Steel Wheels|||45.52##46.83##Wheel Covers|||46.83##48.4##4-wheel Disc Brakes|||48.4##49.58##Front Wheel Drive|||49.58##50.89##Traction Control|||50.89##55.88##Is love at first sight really possible?  Let us know when you stop in
22:19:35 - VIDEO JSON GEN RETURN VALUE: - 0
22:19:35 - update message_remote_queue set error=0, video = 1, error_message = concat( "", error_message ), process_start = '2024-06-15 22:12:52', audio_process_start = '2024-06-15 22:12:52', audio_process_end = '2024-06-15 22:12:56', video_process_start ='2024-06-15 22:12:56', video_process_end='2024-06-15 22:19:35' where queue_id = 284481
22:19:35 - ==83 - 1 Elapsed Time 402.83 ==

22:19:35 - update queue_status set stat_last_update=NOW(), type_cnt = 83, type_loop_cnt = 1499 where type_val = 'V2'
22:19:35 - Curl Response - {"code":200,"status":"Success:PostServerProcessDetails Posted For IP [209.59.156.167] and Process [V2]"}
22:19:35 - Contents - /postServerProcessDetails/ - Success:PostServerProcessDetails Posted For IP [209.59.156.167] and Process [V2] - 200
22:19:35 - update queue_status set stat_last_update=NOW(), type_cnt = 83, type_loop_cnt = 1499 where type_val = 'V2'
22:19:35 - Curl Response - {"code":200,"status":"Success:PostServerProcessDetails Posted For IP [209.59.156.167] and Process [V2]"}
22:19:35 - Contents - /postServerProcessDetails/ - Success:PostServerProcessDetails Posted For IP [209.59.156.167] and Process [V2] - 200
22:19:35 - ========== 83  - 528 mins 381.80108433735 Video Process / Start:2024-06-15 07:31:01 / Mod:1/16======
22:19:36 - Fetching  Video Jobs Mod Val : 1 Mod Limit : 16 Queue ID : 0 

22:19:36 - ========select * from message_remote_queue, hvo_data where queue_id%16 = 1 and image = 1 and video = 0 and error = 0 and hvo_queue_id = queue_id   order by high_priority_row desc, queue_id asc limit 1==================count =1
22:19:36 - Processing Auto VideoFKEY:5FB93177-3615-9271-D1CA-894ECAF67C34 - QueueID:284497 
22:19:36 - CLIENT INFO  CLIENT_FK  : B92976EB-AD88-8BA9-FD3D-50BB1EDCD05F ,CLIENT_INFO :{"client_id":"11160","client_fk":"B92976EB-AD88-8BA9-FD3D-50BB1EDCD05F","client_acc_id":"220","client_name":"Hyundai of Cookeville","client_desc":"Cookeville, Tennessee","client_color":"000000","client_player_color":"","client_textcolor":"","client_tts_text":"","client_tts_options":"","client_inactive":"0","client_createdate":"2019-11-26 11:36:41","client_enddate":"","client_update":"2024-04-12 12:23:21","client_email_forward":"edbanks@hyundaiofcookeville.com","client_dealer_id":"8098","client_franchise_number":"","client_salesperson_name":"Tony Mick","client_address":"931 South Willow Avenue","client_city":"Cookeville","client_state":"Tennessee","client_zip":"38501","client_phone":"931-520-7200","client_url":"hyundaiofcookeville.com","client_fb_id":"","client_km":"0","client_special_price":"0","client_demo":"0","client_utube_flag":"1","client_cvo":"0","client_tts":"0","client_live_uv":"0","client_live_overlay":"2","client_av":"0","client_gv":"0","client_af":"0","client_video_email":"0","client_carfax":"1","client_intro":"1","client_outro":"1","client_slider":"0","client_music_id":"3","client_ei":"0","client_tts_vm":"2","client_hvo":"1","client_mobile":"0","client_portal":"0","client_instavid":"1","client_new_stock_video":"1","client_vidmagnet":"0","client_auto_play":"1","client_cpo":"1","client_vid_stab":"0","client_vp":"0","client_xl":"0","client_carstory":"1","client_360_player":"1","client_ece":"0","client_capture_video":"0","client_new_cvo":"0","client_pip":"1","client_account_id":"1","client_crm_email":"","client_crm_dealer_id":"","client_crm_dealer_key":"","client_archive":"0","client_damage_photo":"0","client_package":"0","client_video_size":"HDLARGE","client_video_style":"RANDOM","client_lat_lng":"","client_comments":"","360ZOOM":"100","V2P360":"360","SHOW_CARSTORY":"1"}
22:19:36 - Rest Call: /client/videoDetails/B92976EB-AD88-8BA9-FD3D-50BB1EDCD05F?video_key=5FB93177-3615-9271-D1CA-894ECAF67C34
22:19:36 - Curl Response - {"video_id":"48611515","video_fk":"5FB93177-3615-9271-D1CA-894ECAF67C34","vehicle_id":"42899536","video_client_id":"11160","video_script":"Lifetime Powertrain Warranty, Backup Camera, Sunroof\/Moonroof, Bluetooth, Navigation, Leather Seats, Push Button Start.

2024 Hyundai Kona Limited 26\/32 City\/Highway MPG Dealer Discount of $1,061 off MSRP

Thank you for choosing Hyundai of Cookeville!!! Home of the Lifetime Power Train Warranty on all New vehicles purchased! Where we are creating happy buyers every day!!


Here at Hyundai of Cookeville is where you Get the best deals with that hometown feel!!! Please give me a call to set up your test drive. 931-520-7200!!!","video_tts_script":"","video_flv":"\/avavids\/1\/clients\/11160\/video\/5FB93177-3615-9271-D1CA-894ECAF67C34.mp4","video_create_time":"2024-04-30 22:07:40","video_update_time":"2024-06-04 22:11:14","audio_length":"0","video_options":"Navigation System,Roof - Power Sunroof,Roof-Sun\/Moon,Front Wheel Drive,Seat-Heated Driver,Power Driver Seat,AM\/FM Stereo,Audio-Upgrade Sound System,Audio-Satellite Radio,MP3 Sound System,Wheels-Aluminum,Communications-Onboard Hands Free,Telephone-Hands-Free Wireless Connection,Remote Keyless Entry,Trip Computer,Tilt Wheel,Traction Control,Brakes-ABS-4 Wheel,4 Wheel Disc Brakes,Tire-Pressure Monitoring System,Security System,Engine Immobilizer\/Vehicle Anti-Theft System,Cruise Control,Steering Wheel Stereo Controls,Steering Wheel-Leather Wrapped,Intermittent Wipers,Wipers-Variable Speed Intermittent,Headlights-Auto-Off,Child Safety Locks,Bucket Seats,Seat-Lumbar-Driver,Seat-Rear Pass-Through,Mirrors-Pwr Driver,Heated Side Mirrors,Side view mirror blinker indicator,Mirror-Electrochromic In-Side Rearview,Mirrors-Vanity-Driver,Mirrors-Vanity-Driver Illuminated,Mirrors-Vanity-Passenger,Mirrors-Vanity-Passenger Illuminated,Air Bag - Driver,Air Bag - Passenger,Air Bags - Head,Air Bag - Side,Air Bag-Side-Head only-Rear,Rear Defrost,Air Conditioning,Climate Control - Auto,Climate Control - Dual,Daytime Running Lights,Built-in Garage Door Opener,Spoiler,Tinted Glass - Deep,Remote Trunk Release,Power Steering,Power Windows,Power Door Locks","video_custom_flag":"0","video_title":"2024 Hyundai Kona","video_local_title":"2024 Hyundai Kona","video_frames":"0","video_image_url":"\/avavids\/1\/clients\/11160\/images\/5FB93177-3615-9271-D1CA-894ECAF67C34_","video_pin_id":"0","video_tts_flag":"1","video_hvo_flag":"0","video_share":"1","video_default_flag":"1","video_imgsrc_urls":"https:\/\/s3.amazonaws.com\/i.autouplinktech.com\/c1600\/54fd9a350cc348bca42d54e23ec9ff50.jpg?mod=202405140000,https:\/\/s3.amazonaws.com\/i.autouplinktech.com\/c1600\/f8fc806b8c2644f4a6f115978a790d46.jpg?mod=202405130000,https:\/\/s3.amazonaws.com\/i.autouplinktech.com\/c1600\/e3393fa9967846549e3505c5a32157f0.jpg?mod=202405130000,https:\/\/s3.amazonaws.com\/i.autouplinktech.com\/c1600\/34d74177f3ac4d0da87eded8d64f6da8.jpg?mod=202405130000,https:\/\/s3.amazonaws.com\/i.autouplinktech.com\/c1600\/b06ef6565f8e421eb23bf074a26343e4.jpg?mod=202405130000,https:\/\/s3.amazonaws.com\/i.autouplinktech.com\/c1600\/460fbfeb85024c3f8bc4c37e12f63b95.jpg?mod=202405130000,https:\/\/s3.amazonaws.com\/i.autouplinktech.com\/c1600\/90a2c8339bff4fc38abe65633893655d.jpg?mod=202405130000,https:\/\/s3.amazonaws.com\/i.autouplinktech.com\/c1600\/aabac703ebc3443d898092be40bdd2e5.jpg?mod=202405130000,https:\/\/s3.amazonaws.com\/i.autouplinktech.com\/c1600\/985ae43c30f34ae186435a31dab3f848.jpg?mod=202405130000,https:\/\/s3.amazonaws.com\/i.autouplinktech.com\/c1600\/4dd70526c78846a682843570ca5e7a1e.jpg?mod=202405130000,https:\/\/s3.amazonaws.com\/i.autouplinktech.com\/c1600\/d52502dbae834f52bbd67d0eb06cc70b.jpg?mod=202405130000,https:\/\/s3.amazonaws.com\/i.autouplinktech.com\/c1600\/16c790c0be5e47db87b98475daa5bfe1.jpg?mod=202405130000","video_thumbnail_url":"","video_rendering_flag":"1","video_error_rendering":"","video_view_cnt":"0","video_delete_flag":"0","video_delete_time":"","video_batch_proc":"1","video_meta_data":"","video_custom_default":"0","video_external_flv":"https:\/\/gcsimages.s3.us-west-001.backblazeb2.com\/clients\/11160\/video\/5FB93177-3615-9271-D1CA-894ECAF67C34.mp4","video_external_wflv":"","video_external_iflv":"","video_custom_uploaded":"0","vehicle_client_id":"11160","vehicle_fkey":"43B07888-34B4-33FD-84D1-B49162967977","vehicle_uid":"KM8HE3A34RU136129_RU136129","vehicle_vin":"KM8HE3A34RU136129","vehicle_stock":"RU136129","vehicle_year":"2024","vehicle_make":"Hyundai","vehicle_model":"Kona","vehicle_trim":"Limited","vehicle_price":"32660","vehicle_mileage":"10","vehicle_int_color":"Black","vehicle_ext_color":"Atlas White","vehicle_body_type":"Sport Utility","vehicle_listing_type":"New","vehicle_citympg":"","vehicle_hwympg":"","vehicle_combmpg":"","vehicle_cylinders":"4","vehicle_engine_size":"1.6L","vehicle_trans":"8-Speed A\/T","vehicle_drivetrain":"","vehicle_passengers":"0","vehicle_doors":"4","vehicle_certified":"0","vehicle_special":"0","vehicle_options":"Navigation System,Roof - Power Sunroof,Roof-Sun\/Moon,Front Wheel Drive,Seat-Heated Driver,Power Driver Seat,AM\/FM Stereo,Audio-Upgrade Sound System,Audio-Satellite Radio,MP3 Sound System,Wheels-Aluminum,Communications-Onboard Hands Free,Telephone-Hands-Free Wireless Connection,Remote Keyless Entry,Trip Computer,Tilt Wheel,Traction Control,Brakes-ABS-4 Wheel,4 Wheel Disc Brakes,Tire-Pressure Monitoring System,Security System,Engine Immobilizer\/Vehicle Anti-Theft System,Cruise Control,Steering Wheel Stereo Controls,Steering Wheel-Leather Wrapped,Intermittent Wipers,Wipers-Variable Speed Intermittent,Headlights-Auto-Off,Child Safety Locks,Bucket Seats,Seat-Lumbar-Driver,Seat-Rear Pass-Through,Mirrors-Pwr Driver,Heated Side Mirrors,Side view mirror blinker indicator,Mirror-Electrochromic In-Side Rearview,Mirrors-Vanity-Driver,Mirrors-Vanity-Driver Illuminated,Mirrors-Vanity-Passenger,Mirrors-Vanity-Passenger Illuminated,Air Bag - Driver,Air Bag - Passenger,Air Bags - Head,Air Bag - Side,Air Bag-Side-Head only-Rear,Rear Defrost,Air Conditioning,Climate Control - Auto,Climate Control - Dual,Daytime Running Lights,Built-in Garage Door Opener,Spoiler,Tinted Glass - Deep,Remote Trunk Release,Power Steering,Power Windows,Power Door Locks","vehicle_desc":"Lifetime Powertrain Warranty, Backup Camera, Sunroof\/Moonroof, Bluetooth, Navigation, Leather Seats, Push Button Start.

2024 Hyundai Kona Limited 26\/32 City\/Highway MPG Dealer Discount of $1,061 off MSRP

Thank you for choosing Hyundai of Cookeville!!! Home of the Lifetime Power Train Warranty on all New vehicles purchased! Where we are creating happy buyers every day!!


Here at Hyundai of Cookeville is where you Get the best deals with that hometown feel!!! Please give me a call to set up your test drive. 931-520-7200!!!","vehicle_chrome_style_id":"","vehicle_model_num":"","vehicle_stock_video":"0","vehicle_img_cnt":"0","veh_more_info":"","vehicle_create_date":"2024-04-30 22:07:40","vehicle_update_date":"2024-06-15 22:10:33","vehicle_md5":"113fd144ce8e0eb8e521b3adc8193329","vehicle_status":"U","vehicle_add":"0","vehicle_delete_flag":"0","vehicle_delete_time":""} 22:19:36 - Rest Call: /client/carfax/B92976EB-AD88-8BA9-FD3D-50BB1EDCD05F?video_key=5FB93177-3615-9271-D1CA-894ECAF67C34 22:19:36 - Curl Response - {"error":"Carfax Info not found for video key[5FB93177-3615-9271-D1CA-894ECAF67C34]"} 22:19:36 - Rest Call: /client/getAudioVideoConfig/B92976EB-AD88-8BA9-FD3D-50BB1EDCD05F?listing_type=New&video_type=Auto&certified=0&vehicle_make=Hyundai 22:19:37 - Curl Response - {"BG_MUSIC":"Concept12","THEME_BG_COLOR":"ffffff","THEME_ACCENTS_COLOR":"047ec1","THEME_FONT_COLOR":"000000","THEME_FONT":"Din","THEME_STYLE":"Ren","BG_VOL_LEVEL":"0.25","AUDIO_VO":"","VIDEO_SIZE":"VIDEO_LARGE","CUSTOM_INTRO":"","CUSTOM_OUTRO":"","THEME_KEY":"0_0_Auto_Default_0_ALL","THEME_RANK":"2","THEME_CONFIG":"GLOBAL_CONFIG","OLD_BG_STYLE":"0"} 22:19:37 - Return from CheckProfileVal function::0 - DISABLE_PRICE - YES 22:19:37 - Return from CheckProfileVal function::0 - DISABLE_MILEAGE - YES 22:19:37 - Return from CheckProfileVal function::0 - DISABLE_CARSTORY - YES 22:19:37 - Config Information for 5FB93177-3615-9271-D1CA-894ECAF67C34 - Width:640 - CPO:1/0 - CF:1 - CS:1 - Intro:1 - Outro:1 - Ovleray:2 -THEME:0_0_Auto_Default_0_ALL 22:19:37 - https://s3.amazonaws.com/i.autouplinktech.com/c1600/54fd9a350cc348bca42d54e23ec9ff50.jpg?mod=202405140000 /var/www/html/clients/11160/images/5FB93177-3615-9271-D1CA-894ECAF67C34_1.jpg 22:19:37 - https://s3.amazonaws.com/i.autouplinktech.com/c1600/f8fc806b8c2644f4a6f115978a790d46.jpg?mod=202405130000 /var/www/html/clients/11160/images/5FB93177-3615-9271-D1CA-894ECAF67C34_2.jpg 22:19:37 - https://s3.amazonaws.com/i.autouplinktech.com/c1600/e3393fa9967846549e3505c5a32157f0.jpg?mod=202405130000 /var/www/html/clients/11160/images/5FB93177-3615-9271-D1CA-894ECAF67C34_3.jpg 22:19:37 - https://s3.amazonaws.com/i.autouplinktech.com/c1600/34d74177f3ac4d0da87eded8d64f6da8.jpg?mod=202405130000 /var/www/html/clients/11160/images/5FB93177-3615-9271-D1CA-894ECAF67C34_4.jpg 22:19:37 - https://s3.amazonaws.com/i.autouplinktech.com/c1600/b06ef6565f8e421eb23bf074a26343e4.jpg?mod=202405130000 /var/www/html/clients/11160/images/5FB93177-3615-9271-D1CA-894ECAF67C34_5.jpg 22:19:37 - https://s3.amazonaws.com/i.autouplinktech.com/c1600/460fbfeb85024c3f8bc4c37e12f63b95.jpg?mod=202405130000 /var/www/html/clients/11160/images/5FB93177-3615-9271-D1CA-894ECAF67C34_6.jpg 22:19:37 - https://s3.amazonaws.com/i.autouplinktech.com/c1600/90a2c8339bff4fc38abe65633893655d.jpg?mod=202405130000 /var/www/html/clients/11160/images/5FB93177-3615-9271-D1CA-894ECAF67C34_7.jpg 22:19:37 - https://s3.amazonaws.com/i.autouplinktech.com/c1600/aabac703ebc3443d898092be40bdd2e5.jpg?mod=202405130000 /var/www/html/clients/11160/images/5FB93177-3615-9271-D1CA-894ECAF67C34_8.jpg 22:19:37 - https://s3.amazonaws.com/i.autouplinktech.com/c1600/985ae43c30f34ae186435a31dab3f848.jpg?mod=202405130000 /var/www/html/clients/11160/images/5FB93177-3615-9271-D1CA-894ECAF67C34_9.jpg 22:19:37 - https://s3.amazonaws.com/i.autouplinktech.com/c1600/4dd70526c78846a682843570ca5e7a1e.jpg?mod=202405130000 /var/www/html/clients/11160/images/5FB93177-3615-9271-D1CA-894ECAF67C34_10.jpg 22:19:37 - https://s3.amazonaws.com/i.autouplinktech.com/c1600/d52502dbae834f52bbd67d0eb06cc70b.jpg?mod=202405130000 /var/www/html/clients/11160/images/5FB93177-3615-9271-D1CA-894ECAF67C34_11.jpg 22:19:37 - https://s3.amazonaws.com/i.autouplinktech.com/c1600/16c790c0be5e47db87b98475daa5bfe1.jpg?mod=202405130000 /var/www/html/clients/11160/images/5FB93177-3615-9271-D1CA-894ECAF67C34_12.jpg 22:19:37 - Image Count 12 22:19:37 - Setting Female English VO Constants | 0 | 0 22:19:37 - ====HVO Value:1, Audio Value:0=== 22:19:37 - Return from CheckProfileVal function::0 - AUDIO_INTRO - 22:19:37 - Return from CheckProfileVal function::0 - AUDIO_OUTRO - 22:19:37 - ================Process HVO=========== 1 22:19:37 - ================CLIENT SELECT TTS VM VALUE=========== 2 22:19:37 - 2 - 2 - /var/app/video_pre_processor/assets/hvo/ 22:19:37 - Setting Female English VO Constants | 0 | 2 22:19:37 - HVO Soap Call Method - AudoListWMIE 22:19:37 - Getting Text For Audio Files 22:19:37 - HVO Soap Call Method - AudoListTWMIE 22:19:37 - Getting Text For Audio Files emotionalFile 9 22:19:37 - HVO Soap Call Method - GetTTScripts 22:19:37 - Getting Text For Audio Files introEmotionalFile 24 22:19:37 - HVO Soap Call Method - GetTTScripts 22:19:37 - Getting Text For Audio Files scriptFile 22 22:19:37 - HVO Soap Call Method - GetTTScripts 22:19:37 - ================TTS VM VALUE=========== 2 22:19:37 - ================GetVOFiles=========== {"OptionFiles":[{"option_str":"* General Options Intro","option_file":"http:\/\/hvo.flickfusion.net\/audio\/options\/options_fe_audio_file_55.mp3","option_saftey":1},{"option_str":"Traction Control","option_file":"http:\/\/hvo.flickfusion.net\/audio\/options\/options_fe_audio_file_18.mp3","option_saftey":2},{"option_str":"ANTI-LOCK BRAKING SYSTEM","option_file":"http:\/\/hvo.flickfusion.net\/audio\/options\/options_fe_audio_file_70.mp3","option_saftey":1},{"option_str":"Navigation System","option_file":"http:\/\/hvo.flickfusion.net\/audio\/options\/options_fe_audio_file_219.mp3","option_saftey":1},{"option_str":"MoonRoof","option_file":"http:\/\/hvo.flickfusion.net\/audio\/options\/options_fe_audio_file_218.mp3","option_saftey":1},{"option_str":"Bluetooth Hands Free","option_file":"http:\/\/hvo.flickfusion.net\/audio\/options\/options_fe_audio_file_6.mp3","option_saftey":1},{"option_str":"air conditioning","option_file":"http:\/\/hvo.flickfusion.net\/audio\/options\/options_fe_audio_file_1419.mp3","option_saftey":1},{"option_str":"Power Steering","option_file":"http:\/\/hvo.flickfusion.net\/audio\/options\/options_fe_audio_file_244.mp3","option_saftey":1},{"option_str":"HOMELINK GARAGE DOOR OPENER","option_file":"http:\/\/hvo.flickfusion.net\/audio\/options\/options_fe_audio_file_510.mp3","option_saftey":1},{"option_str":"Cruise Control","option_file":"http:\/\/hvo.flickfusion.net\/audio\/options\/options_fe_audio_file_134.mp3","option_saftey":1},{"option_str":"Aluminum Wheels","option_file":"http:\/\/hvo.flickfusion.net\/audio\/options\/options_fe_audio_file_83.mp3","option_saftey":1},{"option_str":"HANDS-FREE COMMUNICATION ","option_file":"http:\/\/hvo.flickfusion.net\/audio\/options\/options_fe_audio_file_459.mp3","option_saftey":1},{"option_str":"Climate Control \/ Multi Zone","option_file":"http:\/\/hvo.flickfusion.net\/audio\/options\/options_fe_audio_file_128.mp3","option_saftey":1},{"option_str":"Premium Sound","option_file":"http:\/\/hvo.flickfusion.net\/audio\/options\/options_fe_audio_file_247.mp3","option_saftey":1},{"option_str":"AM\/FM STEREO RADIO","option_file":"http:\/\/hvo.flickfusion.net\/audio\/options\/options_fe_audio_file_69.mp3","option_saftey":1},{"option_str":"FRONT WHEEL DRIVE","option_file":"http:\/\/hvo.flickfusion.net\/audio\/options\/options_fe_audio_file_170.mp3","option_saftey":1},{"option_str":"Climate Control \/ Automatic","option_file":"http:\/\/hvo.flickfusion.net\/audio\/options\/options_fe_audio_file_127.mp3","option_saftey":1},{"option_str":"Rear Defrost","option_file":"http:\/\/hvo.flickfusion.net\/audio\/options\/options_fe_audio_file_259.mp3","option_saftey":1},{"option_str":"SECURITY SYSTEM","option_file":"http:\/\/hvo.flickfusion.net\/audio\/options\/options_fe_audio_file_996.mp3","option_saftey":1},{"option_str":"Power Door Locks","option_file":"http:\/\/hvo.flickfusion.net\/audio\/options\/options_fe_audio_file_234.mp3","option_saftey":1},{"option_str":"MP3 Playback Stereo","option_file":"http:\/\/hvo.flickfusion.net\/audio\/options\/options_fe_audio_file_26.mp3","option_saftey":1},{"option_str":"Heated Driver Seat","option_file":"http:\/\/hvo.flickfusion.net\/audio\/options\/options_fe_audio_file_190.mp3","option_saftey":1},{"option_str":"Trip Computer","option_file":"http:\/\/hvo.flickfusion.net\/audio\/options\/options_fe_audio_file_321.mp3","option_saftey":1},{"option_str":"Bucket Seats","option_file":"http:\/\/hvo.flickfusion.net\/audio\/options\/options_fe_audio_file_107.mp3","option_saftey":1},{"option_str":"Child Safety Locks","option_file":"http:\/\/hvo.flickfusion.net\/audio\/options\/options_fe_audio_file_122.mp3","option_saftey":1},{"option_str":"Power Windows","option_file":"http:\/\/hvo.flickfusion.net\/audio\/options\/options_fe_audio_file_2.mp3","option_saftey":1},{"option_str":"POWER MOONROOF","option_file":"http:\/\/hvo.flickfusion.net\/audio\/options\/options_fe_audio_file_563.mp3","option_saftey":1},{"option_str":"Daytime Running Lights","option_file":"http:\/\/hvo.flickfusion.net\/audio\/options\/options_fe_audio_file_142.mp3","option_saftey":1},{"option_str":"Satellite Radio","option_file":"http:\/\/hvo.flickfusion.net\/audio\/options\/options_fe_audio_file_279.mp3","option_saftey":1},{"option_str":"Remote Keyless Entry","option_file":"http:\/\/hvo.flickfusion.net\/audio\/options\/options_fe_audio_file_273.mp3","option_saftey":1},{"option_str":"TILT STEERING WHEEL","option_file":"http:\/\/hvo.flickfusion.net\/audio\/options\/options_fe_audio_file_300.mp3","option_saftey":1},{"option_str":"Remote Trunk Release","option_file":"http:\/\/hvo.flickfusion.net\/audio\/options\/options_fe_audio_file_275.mp3","option_saftey":1},{"option_str":"Electrochromic rearview mirror","option_file":"http:\/\/hvo.flickfusion.net\/audio\/options\/options_fe_audio_file_161.mp3","option_saftey":1},{"option_str":"Headlights-Auto-Off","option_file":"http:\/\/hvo.flickfusion.net\/audio\/options\/options_fe_audio_file_187.mp3","option_saftey":1},{"option_str":"Power Driver Seat","option_file":"http:\/\/hvo.flickfusion.net\/audio\/options\/options_fe_audio_file_237.mp3","option_saftey":1},{"option_str":"Wipers-Variable Speed Intermittent","option_file":"http:\/\/hvo.flickfusion.net\/audio\/options\/options_fe_audio_file_333.mp3","option_saftey":1},{"option_str":"Steering Wheel-Leather Wrapped","option_file":"http:\/\/hvo.flickfusion.net\/audio\/options\/options_fe_audio_file_295.mp3","option_saftey":1},{"option_str":"Tinted Glass","option_file":"http:\/\/hvo.flickfusion.net\/audio\/options\/options_fe_audio_file_306.mp3","option_saftey":1},{"option_str":"HEATED SIDE MIRRORS","option_file":"http:\/\/hvo.flickfusion.net\/audio\/options\/options_fe_audio_file_581.mp3","option_saftey":1},{"option_str":"Vanity Mirrors","option_file":"http:\/\/hvo.flickfusion.net\/audio\/options\/options_fe_audio_file_324.mp3","option_saftey":1},{"option_str":"Mirrors-Pwr Driver","option_file":"http:\/\/hvo.flickfusion.net\/audio\/options\/options_fe_audio_file_215.mp3","option_saftey":1},{"option_str":"Engine Immobilizer","option_file":"http:\/\/hvo.flickfusion.net\/audio\/options\/options_fe_audio_file_33.mp3","option_saftey":2},{"option_str":"Pass-Through Rear Seat","option_file":"http:\/\/hvo.flickfusion.net\/audio\/options\/options_fe_audio_file_227.mp3","option_saftey":1},{"option_str":"Integrated Turn Signal Mirrors","option_file":"http:\/\/hvo.flickfusion.net\/audio\/options\/options_fe_audio_file_198.mp3","option_saftey":1},{"option_str":"Steering Wheel Controls","option_file":"http:\/\/hvo.flickfusion.net\/audio\/options\/options_fe_audio_file_292.mp3","option_saftey":1},{"option_str":"Vanity Mirrors","option_file":"http:\/\/hvo.flickfusion.net\/audio\/options\/options_fe_audio_file_324.mp3","option_saftey":1},{"option_str":"Vanity Mirrors","option_file":"http:\/\/hvo.flickfusion.net\/audio\/options\/options_fe_audio_file_324.mp3","option_saftey":1},{"option_str":"Vanity Mirrors","option_file":"http:\/\/hvo.flickfusion.net\/audio\/options\/options_fe_audio_file_324.mp3","option_saftey":1},{"option_str":"Tire Pressure Monitoring System","option_file":"http:\/\/hvo.flickfusion.net\/audio\/options\/options_fe_audio_file_307.mp3","option_saftey":1},{"option_str":"Rear Spoiler","option_file":"http:\/\/hvo.flickfusion.net\/audio\/options\/options_fe_audio_file_10.mp3","option_saftey":1},{"option_str":"LUMBAR SUPPORT","option_file":"http:\/\/hvo.flickfusion.net\/audio\/options\/options_fe_audio_file_690.mp3","option_saftey":1},{"option_str":" 4-PIECE FLOOR MAT SET ","option_file":"http:\/\/hvo.flickfusion.net\/audio\/options\/options_fe_audio_file_357.mp3","option_saftey":1},{"option_str":"* Safety Options Intro","option_file":"http:\/\/hvo.flickfusion.net\/audio\/options\/options_fe_audio_file_19.mp3","option_saftey":2},{"option_str":"* Safety Options Intro","option_file":"http:\/\/hvo.flickfusion.net\/audio\/options\/options_fe_audio_file_19.mp3","option_saftey":2},{"option_str":"* Safety Options Intro","option_file":"http:\/\/hvo.flickfusion.net\/audio\/options\/options_fe_audio_file_19.mp3","option_saftey":2},{"option_str":"* Safety Options Intro","option_file":"http:\/\/hvo.flickfusion.net\/audio\/options\/options_fe_audio_file_19.mp3","option_saftey":2},{"option_str":"* Safety Options Intro","option_file":"http:\/\/hvo.flickfusion.net\/audio\/options\/options_fe_audio_file_19.mp3","option_saftey":2}],"yearFile":"http:\/\/hvo.flickfusion.net\/audio\/year\/year_fe_audio_file_66.mp3","makeFile":"http:\/\/hvo.flickfusion.net\/audio\/makes\/make_name_fe_audio_file_18.mp3","modelFile":"http:\/\/hvo.flickfusion.net\/audio\/mdlnames\/model_name_fe_audio_file_1101.mp3","modelHighlightFile":"http:\/\/hvo.flickfusion.net\/audio\/models\/model_fe_audio_file_1101.mp3","styleFile":"","bodytypeFile":"","transFile":"http:\/\/hvo.flickfusion.net\/audio\/domain_transmission\/transmission_fe_audio_file_11.mp3","engineFile":"http:\/\/hvo.flickfusion.net\/audio\/domain_enginesize\/enginesize_fe_audio_file_23.mp3","cylindersFile":"http:\/\/hvo.flickfusion.net\/audio\/domain_cylinders\/cylinder_fe_audio_file_4.mp3","driveTrainFile":"","priceFile":"http:\/\/hvo.flickfusion.net\/audio\/prices\/price_fe_audio_file_15.mp3","mileageFile":"http:\/\/hvo.flickfusion.net\/audio\/mileage\/miles_fe_audio_file_33.mp3","carfaxFile":"","emotionalFile":"http:\/\/hvo.flickfusion.net\/audio\/emotional\/emotional_fe_audio_file_9.mp3","introEmotionalFile":"http:\/\/hvo.flickfusion.net\/audio\/emotional\/ie_fe_audio_file_24.mp3","scriptFile":"http:\/\/hvo.flickfusion.net\/audio\/domain_scripts\/script_fe_audio_file_22.mp3","statusCode":"1","statusMessage":"Audio Files Sent"} 22:19:37 - /var/www/html/clients/11160/audio/5FB93177-3615-9271-D1CA-894ECAF67C34.wav 22:19:37 - ================Process HVO SOAP CALL CMD=========== /usr/bin/sox STATUS CODE 1 22:19:37 - /var/app/video_pre_processor/assets/hvo/ie_fe_audio_file_24.wav PlayTime:1.75 22:19:37 - /var/app/video_pre_processor/assets/hvo/year_fe_audio_file_66.wav PlayTime:1.88 22:19:37 - /var/app/video_pre_processor/assets/hvo/model_name_fe_audio_file_1101.wav PlayTime:0.75 22:19:37 - /var/app/video_pre_processor/assets/hvo/model_fe_audio_file_1101.wav PlayTime:11.77 22:19:37 - Skipping VTT for BODY - bodytypeFile 22:19:37 - /var/app/video_pre_processor/assets/hvo/price_fe_audio_file_15.wav PlayTime:3.16 22:19:37 - KM Check : 10 | 0 22:19:37 - /var/app/video_pre_processor/assets/hvo/miles_fe_audio_file_33.wav PlayTime:2.61 22:19:37 - Curl Response - {"interior":["Navigation System","Security System","Cruise Control","Trip Computer","Child Safety Locks","Power Door Locks","Power Windows","Power Steering","Power Driver Seat","Rear Defrost","Bucket Seats","Steering Wheel-leather Wrapped","Tilt Steering Wheel","Wipers-variable Speed Intermittent","A\/c","Am\/fm Stereo Radio","Rear Defroster"],"exterior":["Aluminum Wheels","Rear Spoiler","Heated Side Mirrors","Intermittent Wipers","Daytime Running Lights","Remote Keyless Entry","Mirrors-pwr Driver","Remote Trunk Release","Front Wheel Drive","Headlights-auto-off","Traction Control"]} 22:19:37 - ============={"interior":["Navigation System","Security System","Cruise Control","Trip Computer","Child Safety Locks","Power Door Locks","Power Windows","Power Steering","Power Driver Seat","Rear Defrost","Bucket Seats","Steering Wheel-leather Wrapped","Tilt Steering Wheel","Wipers-variable Speed Intermittent","A\/c","Am\/fm Stereo Radio","Rear Defroster"],"exterior":["Aluminum Wheels","Rear Spoiler","Heated Side Mirrors","Intermittent Wipers","Daytime Running Lights","Remote Keyless Entry","Mirrors-pwr Driver","Remote Trunk Release","Front Wheel Drive","Headlights-auto-off","Traction Control"]}=============== 22:19:37 - /var/app/video_pre_processor/assets/hvo/options_fe_audio_file_55.wav PlayTime:2.35 22:19:37 - /var/app/video_pre_processor/assets/hvo/options_fe_audio_file_83.wav PlayTime:1.2 22:19:37 - /var/app/video_pre_processor/assets/hvo/options_fe_audio_file_10.wav PlayTime:1.1 22:19:37 - /var/app/video_pre_processor/assets/hvo/options_fe_audio_file_581.wav PlayTime:1.38 22:19:37 - /var/app/video_pre_processor/assets/hvo/options_fe_audio_file_142.wav PlayTime:1.57 22:19:37 - /var/app/video_pre_processor/assets/hvo/options_fe_audio_file_273.wav PlayTime:1.7 22:19:37 - /var/app/video_pre_processor/assets/hvo/options_fe_audio_file_215.wav PlayTime:1.12 22:19:37 - /var/app/video_pre_processor/assets/hvo/options_fe_audio_file_275.wav PlayTime:1.8 22:19:37 - /var/app/video_pre_processor/assets/hvo/options_fe_audio_file_170.wav PlayTime:1.18 22:19:37 - /var/app/video_pre_processor/assets/hvo/options_fe_audio_file_187.wav PlayTime:1.46 22:19:37 - /var/app/video_pre_processor/assets/hvo/options_fe_audio_file_18.wav PlayTime:1.31 22:19:37 - ======= ALL Options ========== null 22:19:37 - /var/www/html/clients/11160/audio/5FB93177-3615-9271-D1CA-894ECAF67C34_option.wav 22:19:37 - /usr/bin/sox /var/app/video_pre_processor/assets/hvo/options_fe_audio_file_55.wav /var/app/video_pre_processor/assets/hvo/options_fe_audio_file_83.wav /var/app/video_pre_processor/assets/hvo/options_fe_audio_file_10.wav /var/app/video_pre_processor/assets/hvo/options_fe_audio_file_581.wav /var/app/video_pre_processor/assets/hvo/options_fe_audio_file_142.wav /var/app/video_pre_processor/assets/hvo/options_fe_audio_file_273.wav /var/app/video_pre_processor/assets/hvo/options_fe_audio_file_215.wav /var/app/video_pre_processor/assets/hvo/options_fe_audio_file_275.wav /var/app/video_pre_processor/assets/hvo/options_fe_audio_file_170.wav /var/app/video_pre_processor/assets/hvo/options_fe_audio_file_187.wav /var/app/video_pre_processor/assets/hvo/options_fe_audio_file_18.wav /var/www/html/clients/11160/audio/5FB93177-3615-9271-D1CA-894ECAF67C34_option.wav 22:19:37 - /var/www/html/clients/11160/audio/5FB93177-3615-9271-D1CA-894ECAF67C34_option.wav PlayTime:16.17 22:19:37 - Skipping VTT for CARFAX - carfaxFile 22:19:37 - /var/app/video_pre_processor/assets/hvo/emotional_fe_audio_file_9.wav PlayTime:3.06 22:19:37 - /usr/bin/sox /var/app/video_pre_processor/assets/hvo/ie_fe_audio_file_24.wav /var/app/video_pre_processor/assets/hvo/year_fe_audio_file_66.wav /var/app/video_pre_processor/assets/hvo/model_name_fe_audio_file_1101.wav /var/app/video_pre_processor/assets/hvo/model_fe_audio_file_1101.wav /var/app/video_pre_processor/assets/hvo/price_fe_audio_file_15.wav /var/app/video_pre_processor/assets/hvo/miles_fe_audio_file_33.wav /var/www/html/clients/11160/audio/5FB93177-3615-9271-D1CA-894ECAF67C34_option.wav /var/app/video_pre_processor/assets/hvo/emotional_fe_audio_file_9.wav /var/www/html/clients/11160/audio/5FB93177-3615-9271-D1CA-894ECAF67C34_temp1.wav 22:19:37 - Return from CheckProfileVal function::0 - REPLACE_FULL_AUDIO - 22:19:37 - Return from CheckProfileVal function::0 - REPLACE_FULL_AUDIO_NEW - 22:19:37 - ========REPALCE AUDIO TRACK LISTING TYPE new \ n USED VALUE : 0 NEW AUDIO VALUE : { 0} ============== 22:19:37 - Video Length for audio merge: 0 22:19:37 - /root/bin/ffmpeg -i /var/www/html/clients/11160/audio/5FB93177-3615-9271-D1CA-894ECAF67C34.wav -f mp3 -ar 44100 -ab 320 -ac 2 -y /var/www/html/clients/11160/audio/5FB93177-3615-9271-D1CA-894ECAF67C34.mp3 ffmpeg version N-109053-g9b13078c6a Copyright (c) 2000-2022 the FFmpeg developers built with gcc 5.4.0 (GCC) configuration: --prefix=/root/ffmpeg_build --pkg-config-flags=--static --extra-cflags=-I/root/ffmpeg_build/include --extra-ldflags=-L/root/ffmpeg_build/lib --extra-libs=-lpthread --extra-libs=-lm --bindir=/root/bin --enable-gpl --enable-libfdk_aac --enable-libfreetype --enable-libmp3lame --enable-libopus --enable-libvpx --enable-libx264 --enable-openssl --enable-libx265 --enable-nonfree --enable-libvidstab libavutil 57. 42.100 / 57. 42.100 libavcodec 59. 52.101 / 59. 52.101 libavformat 59. 34.101 / 59. 34.101 libavdevice 59. 8.101 / 59. 8.101 libavfilter 8. 50.100 / 8. 50.100 libswscale 6. 8.112 / 6. 8.112 libswresample 4. 9.100 / 4. 9.100 libpostproc 56. 7.100 / 56. 7.100 Guessed Channel Layout for Input Stream #0.0 : stereo Input #0, wav, from '/var/www/html/clients/11160/audio/5FB93177-3615-9271-D1CA-894ECAF67C34.wav': Duration: 00:00:41.16, bitrate: 1411 kb/s Stream #0:0: Audio: pcm_s16le ([1][0][0][0] / 0x0001), 44100 Hz, 2 channels, s16, 1411 kb/s Stream mapping: Stream #0:0 -> #0:0 (pcm_s16le (native) -> mp3 (libmp3lame)) Press [q] to stop, [?] for help [libmp3lame @ 0x4915480] Bitrate 320 is extremely low, maybe you mean 320k The bitrate parameter is set too low. It takes bits/s as argument, not kbits/s Output #0, mp3, to '/var/www/html/clients/11160/audio/5FB93177-3615-9271-D1CA-894ECAF67C34.mp3': Metadata: TSSE : Lavf59.34.101 Stream #0:0: Audio: mp3, 44100 Hz, stereo, s16p, 0 kb/s Metadata: encoder : Lavc59.52.101 libmp3lame size= 0kB time=-577014:32:22.77 bitrate= -0.0kbits/s speed=N/A size= 106kB time=00:00:06.76 bitrate= 128.8kbits/s speed=13.5x size= 217kB time=00:00:13.87 bitrate= 128.1kbits/s speed=13.8x size= 256kB time=00:00:20.92 bitrate= 100.2kbits/s speed=13.9x size= 256kB time=00:00:27.56 bitrate= 76.1kbits/s speed=13.8x size= 512kB time=00:00:34.69 bitrate= 120.9kbits/s speed=13.9x size= 644kB time=00:00:41.14 bitrate= 128.2kbits/s speed=13.9x video:0kB audio:644kB subtitle:0kB other streams:0kB global headers:0kB muxing overhead: 0.038384% 22:19:40 - /var/app/video_pre_processor/assets/vidbot/_files/audio/Concept12.mp3 PlayTime:385.83 22:19:40 - Using Concept12.mp3 - /var/app/video_pre_processor/assets/vidbot/_files/audio/Concept12.mp3 22:19:40 - BG MUSIC FILE /var/app/video_pre_processor/assets/vidbot/_files/audio/Concept12.mp3 22:19:40 - BG AUDIO CLIENT OVELAY VALUE : 2 22:19:40 - /var/www/html/clients/11160/audio/5FB93177-3615-9271-D1CA-894ECAF67C34.wav PlayTime:41.16 22:19:40 - VParent - VOLEN:43.16 | /var/www/html/clients/11160/audio/5FB93177-3615-9271-D1CA-894ECAF67C34.mp3 | /var/app/video_pre_processor/assets/vidbot/_files/audio/Concept12.mp3 | /var/www/html/clients/11160/audio/5FB93177-3615-9271-D1CA-894ECAF67C34.wav 22:19:40 - AUDIO PROCESS RETURN VALUE: - 1 22:19:40 - update message_remote_queue set video_process_start = '2024-06-15 22:19:40' where queue_id = 284497 22:19:40 - CLIENT INFO DATA {"client_id":"11160","client_fk":"B92976EB-AD88-8BA9-FD3D-50BB1EDCD05F","client_acc_id":"220","client_name":"Hyundai of Cookeville","client_desc":"Cookeville, Tennessee","client_color":"000000","client_player_color":"","client_textcolor":"","client_tts_text":"","client_tts_options":"","client_inactive":"0","client_createdate":"2019-11-26 11:36:41","client_enddate":"","client_update":"2024-04-12 12:23:21","client_email_forward":"edbanks@hyundaiofcookeville.com","client_dealer_id":"8098","client_franchise_number":"","client_salesperson_name":"Tony Mick","client_address":"931 South Willow Avenue","client_city":"Cookeville","client_state":"Tennessee","client_zip":"38501","client_phone":"931-520-7200","client_url":"hyundaiofcookeville.com","client_fb_id":"","client_km":"0","client_special_price":"0","client_demo":"0","client_utube_flag":"1","client_cvo":"0","client_tts":"0","client_live_uv":"0","client_live_overlay":"2","client_av":"0","client_gv":"0","client_af":"0","client_video_email":"0","client_carfax":"1","client_intro":"1","client_outro":"1","client_slider":"0","client_music_id":"3","client_ei":"0","client_tts_vm":"2","client_hvo":"1","client_mobile":"0","client_portal":"0","client_instavid":"1","client_new_stock_video":"1","client_vidmagnet":"0","client_auto_play":"1","client_cpo":"1","client_vid_stab":"0","client_vp":"0","client_xl":"0","client_carstory":"1","client_360_player":"1","client_ece":"0","client_capture_video":"0","client_new_cvo":"0","client_pip":"1","client_account_id":"1","client_crm_email":"","client_crm_dealer_id":"","client_crm_dealer_key":"","client_archive":"0","client_damage_photo":"0","client_package":"0","client_video_size":"HDLARGE","client_video_style":"RANDOM","client_lat_lng":"","client_comments":"","360ZOOM":"100","V2P360":"360","SHOW_CARSTORY":"1"} 22:19:40 - Map Exists: /var/www/html/clients/11160/library/map.jpg 22:19:40 - /var/www/html/clients/11160/library/intro.mp4 PlayTime:5.17 22:19:40 - /var/www/html/clients/11160/library/outro.mp4 PlayTime:8.71 22:19:40 - Checking CUSTOM_INTRO 22:19:40 - Checking CUSTOM_OUTRO 22:19:40 - ================CREATE VIDEO START =========== 22:19:40 - ================VIDEO JSON GEN START ============== 22:19:40 - Video Size 360 22:19:40 - ===========Video Theme font ================Dinot 22:19:40 - ==========Video fk : ==============5FB93177-3615-9271-D1CA-894ECAF67C34 22:19:40 - ==============AUDIO VIDEO CONFIG : =========={"BG_MUSIC":"Concept12","THEME_BG_COLOR":"ffffff","THEME_ACCENTS_COLOR":"047ec1","THEME_FONT_COLOR":"000000","THEME_FONT":"Dinot","THEME_STYLE":"Ren","BG_VOL_LEVEL":"0.25","AUDIO_VO":"","VIDEO_SIZE":"VIDEO_LARGE","CUSTOM_INTRO":"","CUSTOM_OUTRO":"","THEME_KEY":"0_0_Auto_Default_0_ALL","THEME_RANK":"2","THEME_CONFIG":"GLOBAL_CONFIG","OLD_BG_STYLE":"0"} 22:19:40 - CLIENT FKEY : B92976EB-AD88-8BA9-FD3D-50BB1EDCD05F VIDEO FKEY : 5FB93177-3615-9271-D1CA-894ECAF67C34 VEHICLE FKEY : 22:19:40 - INFO:: Video Type:SS Video Size:360 22:19:40 - Return from CheckProfileVal function::0 - DISPLAY_MILEAGE - NO 22:19:40 - Return from CheckProfileVal function::0 - DISPLAY_MILEAGE - NO 22:19:40 - Return from CheckProfileVal function::0 - DISPLAY_PRICE - NO 22:19:40 - Return from CheckProfileVal function::0 - DISPLAY_PRICE - NO 22:19:40 - ==================ClipsGen START ===================== 22:19:40 - Return from CheckProfileVal function::0 - AUDIO_VO - NO_VO 22:19:40 - Return from CheckProfileVal function::0 - AUDIO_VO - NO_VO 22:19:40 - Return from CheckProfileVal function::0 - AUDIO_VO - LIVE_VO 22:19:40 - Return from CheckProfileVal function::0 - AUDIO_VO - LIVE_VO 22:19:40 - Return from CheckProfileVal function::0 - DISPLAY_OPTIONS - NO 22:19:40 - Return from CheckProfileVal function::0 - DISPLAY_OPTIONS - NO 22:19:40 - Return from CheckProfileVal function::0 - DISPLAY_PRICE - NO 22:19:40 - Return from CheckProfileVal function::0 - DISPLAY_PRICE - NO 22:19:40 - Return from CheckProfileVal function::0 - DISABLE_PRICE - YES 22:19:40 - Return from CheckProfileVal function::0 - DISPLAY_MILEAGE - NO 22:19:40 - Return from CheckProfileVal function::0 - DISPLAY_MILEAGE - NO 22:19:40 - Return from CheckProfileVal function::0 - DISPLAY_INFO - NO 22:19:40 - Return from CheckProfileVal function::0 - DISPLAY_INFO - NO 22:19:40 - Return from CheckProfileVal function::0 - DISPLAY_TITLE_WSNAME - NO 22:19:40 - Return from CheckProfileVal function::0 - DISPLAY_TITLE_WSNAME - NO 22:19:40 - Return from CheckProfileVal function::0 - DISPLAY_ALL_OVERLAYS - NO 22:19:40 - Return from CheckProfileVal function::0 - DISPLAY_ALL_OVERLAYS - NO 22:19:40 - Return from CheckProfileVal function::0 - DISPLAY_MAP - NO 22:19:40 - Return from CheckProfileVal function::0 - DISPLAY_MAP - NO 22:19:40 - =========THEME STYLE-FONT :Ren - Din ============ 22:19:40 - Fetching CarStory Data - B92976EB-AD88-8BA9-FD3D-50BB1EDCD05F - 43B07888-34B4-33FD-84D1-B49162967977 22:19:41 - Curl Response - {"badges":[],"Options":[{"":""},{"":""},{"":""},{"":""},{"":""}],"IIHS":{"iihs_name":""},"SAFETY":null} 22:19:41 - CARSTORY APIS : {"badges":[],"Options":[{"":""},{"":""},{"":""},{"":""},{"":""}],"IIHS":{"iihs_name":""},"SAFETY":null} 22:19:41 - Badge Count 0 - 0 22:19:41 - /usr/bin/sox /var/app/video_pre_processor/assets/music/silence_3.wav /var/www/html/clients/11160/audio/5FB93177-3615-9271-D1CA-894ECAF67C34.wav /var/www/html/clients/11160/audio/5FB93177-3615-9271-D1CA-894ECAF67C34_info_audio.wav 22:19:41 - /var/app/video_pre_processor/assets/vidbot/_files/audio/Concept12.mp3 PlayTime:385.83 22:19:41 - Return from CheckProfileVal function::0 - BG_MUSIC_OVER_ALL_CLIPS - YES 22:19:41 - Return from CheckProfileVal function::0 - BG_MUSIC_OVER_ALL_CLIPS - YES 22:19:41 - AUDIO TIMER: {"INTRO":0,"YEAR":1.75,"MODEL":3.63,"HIGH":4.38,"PRICE":16.15,"MILE":19.31,"ALL_OPTIONS":{"* General Options Intro":21.919999999999998,"Aluminum Wheels":24.27,"Rear Spoiler":25.47,"Heated Side Mirrors":26.57,"Daytime Running Lights":27.95,"Remote Keyless Entry":29.52,"Mirrors-pwr Driver":31.22,"Remote Trunk Release":32.339999999999996,"Front Wheel Drive":34.13999999999999,"Headlights-auto-off":35.31999999999999,"Traction Control":36.779999999999994},"OPTIONS":23.919999999999998,"OPTIONS_AUD_LENGTH":16.17,"ENDFILE":38.089999999999996} 22:19:41 - ===================ClipsGen END ======================== 22:19:41 - INFO:: VIDEO JSON : "5FB93177-3615-9271-D1CA-894ECAF67C34.json" 22:19:41 - node /var/app/Vidbot-V2/dist/vidbot.js --input /var/www/html/clients/11160/video/5FB93177-3615-9271-D1CA-894ECAF67C34.json --log debug > /var/www/html/clients/11160/video/5FB93177-3615-9271-D1CA-894ECAF67C34.log 22:25:00 - Generated Video File./var/www/html/clients/11160/video/5FB93177-3615-9271-D1CA-894ECAF67C34.mp4 22:25:00 - INFO:: Generated Video File./var/www/html/clients/11160/video/5FB93177-3615-9271-D1CA-894ECAF67C34.mp4 22:25:00 - INFO:: Sprite & Bookmark Option(s) not enabled 22:25:00 - ================VIDEO JSON GEN END RETURN VALUE : 1 ============== 22:25:00 - ================CREATE VIDEO END =========== ERROR : { 0} 22:25:00 - Start Time:5.17 22:25:00 - 5.17##6.92##Take a ride in 22:25:00 - 6.92##8.8##The 2024 22:25:00 - 8.8##9.55##Kona 22:25:00 - 9.55##21.32##The Hyundai Kona provides a wide variety of functionality in a small SUV body. The energetic design is perfect for those looking to marry their adventurous side with their urban lifestyle. 22:25:00 - 21.32##24.48##and it is priced below $35000 22:25:00 - 24.48##27.09##This Vehicle has less than 100 miles 22:25:00 - Replacing VTT String * General Options Intro to Here are some of this Vehicle's great options 22:25:00 - 27.09##29.44##Here are some of this Vehicle's great options 22:25:00 - 29.44##30.64##Aluminum Wheels 22:25:00 - 30.64##31.74##Rear Spoiler 22:25:00 - 31.74##33.12##Heated Side Mirrors 22:25:00 - 33.12##34.69##Daytime Running Lights 22:25:00 - 34.69##36.39##Remote Keyless Entry 22:25:00 - 36.39##37.51##Mirrors-pwr Driver 22:25:00 - 37.51##39.31##Remote Trunk Release 22:25:00 - 39.31##40.49##Front Wheel Drive 22:25:00 - 40.49##41.95##Headlights-auto-off 22:25:00 - 41.95##43.26##Traction Control 22:25:00 - 43.26##46.32##Your new ride is just a phone call away 22:25:00 - Curl Response - {"code":200,"status":"VTT Updated"} 22:25:00 - Contents - /postVTTString/ - VTT Updated - 200 5.17##6.92##Take a ride in|||6.92##8.8##The 2024|||8.8##9.55##Kona|||9.55##21.32##The Hyundai Kona provides a wide variety of functionality in a small SUV body. The energetic design is perfect for those looking to marry their adventurous side with their urban lifestyle.|||21.32##24.48##and it is priced below $35000|||24.48##27.09##This Vehicle has less than 100 miles|||27.09##29.44##Here are some of this Vehicle's great options|||29.44##30.64##Aluminum Wheels|||30.64##31.74##Rear Spoiler|||31.74##33.12##Heated Side Mirrors|||33.12##34.69##Daytime Running Lights|||34.69##36.39##Remote Keyless Entry|||36.39##37.51##Mirrors-pwr Driver|||37.51##39.31##Remote Trunk Release|||39.31##40.49##Front Wheel Drive|||40.49##41.95##Headlights-auto-off|||41.95##43.26##Traction Control|||43.26##46.32##Your new ride is just a phone call away 22:25:00 - VIDEO JSON GEN RETURN VALUE: - 0 22:25:00 - update message_remote_queue set error=0, video = 1, error_message = concat( "", error_message ), process_start = '2024-06-15 22:19:37', audio_process_start = '2024-06-15 22:19:37', audio_process_end = '2024-06-15 22:19:40', video_process_start ='2024-06-15 22:19:40', video_process_end='2024-06-15 22:25:00' where queue_id = 284497 22:25:00 - ==84 - 1 Elapsed Time 323.82 == 22:25:00 - update queue_status set stat_last_update=NOW(), type_cnt = 84, type_loop_cnt = 1500 where type_val = 'V2' 22:25:00 - Curl Response - {"code":200,"status":"Success:PostServerProcessDetails Posted For IP [209.59.156.167] and Process [V2]"} 22:25:00 - Contents - /postServerProcessDetails/ - Success:PostServerProcessDetails Posted For IP [209.59.156.167] and Process [V2] - 200 22:25:00 - update queue_status set stat_last_update=NOW(), type_cnt = 84, type_loop_cnt = 1500 where type_val = 'V2' 22:25:00 - Curl Response - {"code":200,"status":"Success:PostServerProcessDetails Posted For IP [209.59.156.167] and Process [V2]"} 22:25:00 - Contents - /postServerProcessDetails/ - Success:PostServerProcessDetails Posted For IP [209.59.156.167] and Process [V2] - 200 22:25:00 - ========== 84 - 533 mins 381.11083333333 Video Process / Start:2024-06-15 07:31:01 / Mod:1/16====== 22:25:01 - Fetching Video Jobs Mod Val : 1 Mod Limit : 16 Queue ID : 0 22:25:01 - ========select * from message_remote_queue, hvo_data where queue_id%16 = 1 and image = 1 and video = 0 and error = 0 and hvo_queue_id = queue_id order by high_priority_row desc, queue_id asc limit 1==================count =1 22:25:01 - Processing Auto VideoFKEY:B1C1B5E3-5F35-CF4A-20C5-3AD12D790B2D - QueueID:284513 22:25:01 - CLIENT INFO CLIENT_FK : 6A904A5F-C37E-5AC3-8C60-63E229C95929 ,CLIENT_INFO :{"client_id":"14661","client_fk":"6A904A5F-C37E-5AC3-8C60-63E229C95929","client_acc_id":"22","client_name":"West Hills CDJR","client_desc":"West Hills CDJR","client_color":"000000","client_player_color":"","client_textcolor":"","client_tts_text":"","client_tts_options":"","client_inactive":"0","client_createdate":"2021-02-16 11:00:31","client_enddate":"","client_update":"2024-05-01 15:18:18","client_email_forward":"plavitt@haselwood.com","client_dealer_id":"WHCDJR","client_franchise_number":"","client_salesperson_name":"Sales","client_address":"900 West Hills Blvd","client_city":"Bremerton","client_state":"WA","client_zip":"98312","client_phone":"360-377-4418","client_url":"https://www.westhillscjd.com/","client_fb_id":"","client_km":"0","client_special_price":"0","client_demo":"0","client_utube_flag":"0","client_cvo":"0","client_tts":"0","client_live_uv":"1","client_live_overlay":"2","client_av":"0","client_gv":"0","client_af":"0","client_video_email":"0","client_carfax":"0","client_intro":"0","client_outro":"0","client_slider":"0","client_music_id":"15","client_ei":"0","client_tts_vm":"2","client_hvo":"1","client_mobile":"0","client_portal":"0","client_instavid":"0","client_new_stock_video":"0","client_vidmagnet":"0","client_auto_play":"1","client_cpo":"1","client_vid_stab":"0","client_vp":"0","client_xl":"0","client_carstory":"0","client_360_player":"1","client_ece":"0","client_capture_video":"0","client_new_cvo":"0","client_pip":"1","client_account_id":"","client_crm_email":"","client_crm_dealer_id":"","client_crm_dealer_key":"","client_archive":"0","client_damage_photo":"0","client_package":"30","client_video_size":"HDLARGE","client_video_style":"RANDOM","client_lat_lng":"","client_comments":"","ftp_extract_images":"1","CONVERT_360_PA_TO_VID":"1","CONVERT_360_TO_VID":"1","SHOW_CARSTORY":"0"} 22:25:01 - Rest Call: /client/videoDetails/6A904A5F-C37E-5AC3-8C60-63E229C95929?video_key=B1C1B5E3-5F35-CF4A-20C5-3AD12D790B2D 22:25:01 - Curl Response - {"video_id":"49334655","video_fk":"B1C1B5E3-5F35-CF4A-20C5-3AD12D790B2D","vehicle_id":"43463700","video_client_id":"14661","video_script":"West Hills Chrysler Jeep is very proud to offer this great-looking 2016 Jeep Wrangler Sport. 4WD

Its simple, we want you to have a remarkable automotive experience. We do that by providing no cost services most Dealerships do not provide...a Limited Return Policy, Onsite Replacement Transportation, Factory Certified Technicians.


Awards:
* 2016 KBB.com Best Resale Value Awards * 2016 KBB.com 10 Most Fun SUVs * 2016 KBB.com 10 Best SUVs Under $25,000 * 2016 KBB.com 10 Most Awarded Cars * 2016 KBB.com 10 Coolest New Cars Under $25,000","video_tts_script":"","video_flv":"\/avavids\/1\/clients\/14661\/video\/B1C1B5E3-5F35-CF4A-20C5-3AD12D790B2D.mp4","video_create_time":"2024-06-15 22:15:44","video_update_time":"2024-06-15 22:15:44","audio_length":"","video_options":"Exterior@Body side moldings (body-color)~Exterior@Door handle color (black)~Exterior@Front bumper color (black)~Exterior@Front fog lights~Exterior@Front wipers (variable intermittent)~Exterior@Grille color (body-color)~Exterior@Headlights (halogen)~Exterior@Mirror color (black)~Exterior@Rear bumper color (black)~Exterior@Rear trunk\/liftgate (side-hinged)~Exterior@Removable roof (soft top)~Exterior@Side mirror adjustments (manual folding)~Exterior@Side mirror adjustments (manual)~Exterior@Skid plate(s)~Exterior@Taillights (LED)~Exterior@Tinted glass~Exterior@Window trim (black)~Interior@Airbag deactivation (occupant sensing passenger)~Interior@Antenna type (mast)~Interior@Assist handle (front)~Interior@Cargo area floor mat~Interior@Center console (front console with storage)~Interior@Cruise control~Interior@Cupholders (front)~Interior@Cupholders (rear)~Interior@Driver seat manual adjustments (4)~Interior@Driver seat manual adjustments (height)~Interior@Driver seat manual adjustments (reclining)~Interior@Easy entry (manual driver seat)~Interior@Easy entry (manual passenger seat)~Interior@Floor mat material (carpet)~Interior@Floor material (carpet)~Interior@Front airbags (dual)~Interior@Front headrests (2)~Interior@Front headrests (adjustable)~Interior@Front seat type (bucket)~Interior@In-Dash CD (single disc)~Interior@Passenger seat manual adjustments (4)~Interior@Passenger seat manual adjustments (reclining)~Interior@Power outlet(s) (12V front)~Interior@Power steering~Interior@Radio (AM\/FM)~Interior@Radio data system~Interior@Reading lights (front)~Interior@Rear headrests (2)~Interior@Rear headrests (adjustable)~Interior@Rear seat folding~Interior@Rear seat manual adjustments (reclining)~Interior@Rear seat type (bench)~Interior@Rearview mirror (manual day\/night)~Interior@Shift knob trim (urethane)~Interior@Steering wheel (tilt)~Interior@Steering wheel mounted controls (audio)~Interior@Steering wheel mounted controls (cruise control)~Interior@Steering wheel trim (urethane)~Interior@Storage (door pockets)~Interior@Storage (front seatback)~Interior@Tool kit~Interior@Total speakers (8)~Interior@Upholstery (cloth)~Interior@Vanity mirrors (dual)~Mechanical@ABS (4-wheel)~Mechanical@Braking assist~Mechanical@Clock~Mechanical@Compass~Mechanical@Digital odometer~Mechanical@Electronic brakeforce distribution~Mechanical@External temperature display~Mechanical@Front brake type (ventilated disc)~Mechanical@Front shock type (gas)~Mechanical@Front spring type (coil)~Mechanical@Front stabilizer bar~Mechanical@Front suspension classification (solid live axle)~Mechanical@Front suspension type (multi-link)~Mechanical@Fuel economy display (MPG)~Mechanical@Fuel economy display (range)~Mechanical@Gauge (tachometer)~Mechanical@Power brakes~Mechanical@Rear brake type (ventilated disc)~Mechanical@Rear shock type (gas)~Mechanical@Rear spring type (coil)~Mechanical@Rear stabilizer bar~Mechanical@Rear suspension classification (solid live axle)~Mechanical@Rear suspension type (trailing arms)~Mechanical@Trip odometer~Mechanical@Warnings and reminders (coolant temperature warning)~Mechanical@Warnings and reminders (lamp failure)~Mechanical@Warnings and reminders (low fuel level)~Mechanical@Warnings and reminders (low oil pressure)~Other@1-Yr SiriusXM Radio Service~Other@16 x 7.0 Luxury Styled Steel Wheels~Other@17 x 7.5 Aluminum Wheels~Other@3.21 Rear Axle Ratio~Other@3.73 Rear Axle Ratio~Other@4-Wheel Disc Brakes~Other@4WD selector (manual hi-lo)~Other@4WD type (part time)~Other@8 Speakers~Other@ABS brakes~Other@AM\/FM radio~Other@Air Conditioning~Other@Alternator (160 amps)~Other@Anti-theft system (alarm)~Other@Audio Jack Input for Mobile Devices~Other@Auxiliary oil cooler~Other@Battery (maintenance-free)~Other@Battery rating (600 CCA)~Other@Black 3-Piece Hard Top~Other@Brake assist~Other@CD player~Other@Cloth Seats w\/Adjustable Head Restraints~Other@Compass~Other@Connectivity Group~Other@Driver door bin~Other@Driver vanity mirror~Other@Dual front impact airbags~Other@Electronic Stability Control~Other@Front Bucket Seats~Other@Front Center Armrest w\/Storage~Other@Front anti-roll bar~Other@Front fog lights~Other@Hill holder control~Other@Integrated roll-over protection~Other@Low tire pressure warning~Other@Normal Duty Suspension~Other@Occupant sensing airbag~Other@Off-road driving assist (hill descent)~Other@Outside temperature display~Other@Passenger door bin~Other@Passenger vanity mirror~Other@Power steering~Other@Quick Order Package 24S~Other@Radio: 130~Other@Rear Window Defroster~Other@Rear anti-roll bar~Other@Roll stability control~Other@SIRIUS Satellite Radio~Other@Spare tire mount location (outside)~Other@Spare tire size (full-size)~Other@Spare wheel type (steel)~Other@Speed control~Other@Stability control~Other@Steering wheel mounted audio controls~Other@Sunrider Soft Top~Other@Tachometer~Other@Tilt steering wheel~Other@Tire Pressure Monitoring System~Other@Tow hooks (front)~Other@Tow hooks (rear)~Other@Traction control~Other@Trip computer~Other@Variably intermittent wipers~Other@Wheels (steel)~Safety@Child seat anchors (LATCH system)~Safety@Crumple zones (front)~Safety@Crumple zones (rear)~Safety@Front seatbelts (3-point)~Safety@Rear seatbelts (3-point)~Safety@Seatbelt force limiters (front)~Safety@Seatbelt pretensioners (front)~Safety@Seatbelt warning sensor (front)","video_custom_flag":"0","video_title":"2016 Jeep Wrangler","video_local_title":"2016 Jeep Wrangler","video_frames":"0","video_image_url":"\/avavids\/1\/clients\/14661\/images\/B1C1B5E3-5F35-CF4A-20C5-3AD12D790B2D_","video_pin_id":"0","video_tts_flag":"1","video_hvo_flag":"0","video_share":"1","video_default_flag":"1","video_imgsrc_urls":"https:\/\/images-data.pgiauto.com\/uploads\/photos\/0\/2024-06-15\/12572138-41c6765bc3ab83581c00a032c43eeb92.jpg,https:\/\/images-data.pgiauto.com\/uploads\/photos\/0\/2024-06-15\/2-12572138-666dd7bdb8555.jpg,https:\/\/images-data.pgiauto.com\/uploads\/photos\/0\/2024-06-15\/3-12572138-666dd7bdeeded.jpg,https:\/\/images-data.pgiauto.com\/uploads\/photos\/0\/2024-06-15\/4-12572138-666dd7be36cc3.jpg","video_thumbnail_url":"","video_rendering_flag":"0","video_error_rendering":"","video_view_cnt":"0","video_delete_flag":"0","video_delete_time":"","video_batch_proc":"1","video_meta_data":"","video_custom_default":"0","video_external_flv":"","video_external_wflv":"","video_external_iflv":"","video_custom_uploaded":"0","vehicle_client_id":"14661","vehicle_fkey":"E5DF912E-A9FB-367B-0C8D-F470360752BD","vehicle_uid":"12572138","vehicle_vin":"1C4AJWAG5GL189320","vehicle_stock":"RA1368A","vehicle_year":"2016","vehicle_make":"Jeep","vehicle_model":"Wrangler","vehicle_trim":"Sport","vehicle_price":"24987","vehicle_mileage":"41662","vehicle_int_color":"Black","vehicle_ext_color":"Billet Silver Metallic Clearcoat","vehicle_body_type":"2D Sport Utility","vehicle_listing_type":"Used","vehicle_citympg":"17","vehicle_hwympg":"21","vehicle_combmpg":"","vehicle_cylinders":"6","vehicle_engine_size":"3.6L V6 24","vehicle_trans":"","vehicle_drivetrain":"4WD","vehicle_passengers":"0","vehicle_doors":"2","vehicle_certified":"0","vehicle_special":"0","vehicle_options":"Exterior@Body side moldings (body-color)~Exterior@Door handle color (black)~Exterior@Front bumper color (black)~Exterior@Front fog lights~Exterior@Front wipers (variable intermittent)~Exterior@Grille color (body-color)~Exterior@Headlights (halogen)~Exterior@Mirror color (black)~Exterior@Rear bumper color (black)~Exterior@Rear trunk\/liftgate (side-hinged)~Exterior@Removable roof (soft top)~Exterior@Side mirror adjustments (manual folding)~Exterior@Side mirror adjustments (manual)~Exterior@Skid plate(s)~Exterior@Taillights (LED)~Exterior@Tinted glass~Exterior@Window trim (black)~Interior@Airbag deactivation (occupant sensing passenger)~Interior@Antenna type (mast)~Interior@Assist handle (front)~Interior@Cargo area floor mat~Interior@Center console (front console with storage)~Interior@Cruise control~Interior@Cupholders (front)~Interior@Cupholders (rear)~Interior@Driver seat manual adjustments (4)~Interior@Driver seat manual adjustments (height)~Interior@Driver seat manual adjustments (reclining)~Interior@Easy entry (manual driver seat)~Interior@Easy entry (manual passenger seat)~Interior@Floor mat material (carpet)~Interior@Floor material (carpet)~Interior@Front airbags (dual)~Interior@Front headrests (2)~Interior@Front headrests (adjustable)~Interior@Front seat type (bucket)~Interior@In-Dash CD (single disc)~Interior@Passenger seat manual adjustments (4)~Interior@Passenger seat manual adjustments (reclining)~Interior@Power outlet(s) (12V front)~Interior@Power steering~Interior@Radio (AM\/FM)~Interior@Radio data system~Interior@Reading lights (front)~Interior@Rear headrests (2)~Interior@Rear headrests (adjustable)~Interior@Rear seat folding~Interior@Rear seat manual adjustments (reclining)~Interior@Rear seat type (bench)~Interior@Rearview mirror (manual day\/night)~Interior@Shift knob trim (urethane)~Interior@Steering wheel (tilt)~Interior@Steering wheel mounted controls (audio)~Interior@Steering wheel mounted controls (cruise control)~Interior@Steering wheel trim (urethane)~Interior@Storage (door pockets)~Interior@Storage (front seatback)~Interior@Tool kit~Interior@Total speakers (8)~Interior@Upholstery (cloth)~Interior@Vanity mirrors (dual)~Mechanical@ABS (4-wheel)~Mechanical@Braking assist~Mechanical@Clock~Mechanical@Compass~Mechanical@Digital odometer~Mechanical@Electronic brakeforce distribution~Mechanical@External temperature display~Mechanical@Front brake type (ventilated disc)~Mechanical@Front shock type (gas)~Mechanical@Front spring type (coil)~Mechanical@Front stabilizer bar~Mechanical@Front suspension classification (solid live axle)~Mechanical@Front suspension type (multi-link)~Mechanical@Fuel economy display (MPG)~Mechanical@Fuel economy display (range)~Mechanical@Gauge (tachometer)~Mechanical@Power brakes~Mechanical@Rear brake type (ventilated disc)~Mechanical@Rear shock type (gas)~Mechanical@Rear spring type (coil)~Mechanical@Rear stabilizer bar~Mechanical@Rear suspension classification (solid live axle)~Mechanical@Rear suspension type (trailing arms)~Mechanical@Trip odometer~Mechanical@Warnings and reminders (coolant temperature warning)~Mechanical@Warnings and reminders (lamp failure)~Mechanical@Warnings and reminders (low fuel level)~Mechanical@Warnings and reminders (low oil pressure)~Other@1-Yr SiriusXM Radio Service~Other@16 x 7.0 Luxury Styled Steel Wheels~Other@17 x 7.5 Aluminum Wheels~Other@3.21 Rear Axle Ratio~Other@3.73 Rear Axle Ratio~Other@4-Wheel Disc Brakes~Other@4WD selector (manual hi-lo)~Other@4WD type (part time)~Other@8 Speakers~Other@ABS brakes~Other@AM\/FM radio~Other@Air Conditioning~Other@Alternator (160 amps)~Other@Anti-theft system (alarm)~Other@Audio Jack Input for Mobile Devices~Other@Auxiliary oil cooler~Other@Battery (maintenance-free)~Other@Battery rating (600 CCA)~Other@Black 3-Piece Hard Top~Other@Brake assist~Other@CD player~Other@Cloth Seats w\/Adjustable Head Restraints~Other@Compass~Other@Connectivity Group~Other@Driver door bin~Other@Driver vanity mirror~Other@Dual front impact airbags~Other@Electronic Stability Control~Other@Front Bucket Seats~Other@Front Center Armrest w\/Storage~Other@Front anti-roll bar~Other@Front fog lights~Other@Hill holder control~Other@Integrated roll-over protection~Other@Low tire pressure warning~Other@Normal Duty Suspension~Other@Occupant sensing airbag~Other@Off-road driving assist (hill descent)~Other@Outside temperature display~Other@Passenger door bin~Other@Passenger vanity mirror~Other@Power steering~Other@Quick Order Package 24S~Other@Radio: 130~Other@Rear Window Defroster~Other@Rear anti-roll bar~Other@Roll stability control~Other@SIRIUS Satellite Radio~Other@Spare tire mount location (outside)~Other@Spare tire size (full-size)~Other@Spare wheel type (steel)~Other@Speed control~Other@Stability control~Other@Steering wheel mounted audio controls~Other@Sunrider Soft Top~Other@Tachometer~Other@Tilt steering wheel~Other@Tire Pressure Monitoring System~Other@Tow hooks (front)~Other@Tow hooks (rear)~Other@Traction control~Other@Trip computer~Other@Variably intermittent wipers~Other@Wheels (steel)~Safety@Child seat anchors (LATCH system)~Safety@Crumple zones (front)~Safety@Crumple zones (rear)~Safety@Front seatbelts (3-point)~Safety@Rear seatbelts (3-point)~Safety@Seatbelt force limiters (front)~Safety@Seatbelt pretensioners (front)~Safety@Seatbelt warning sensor (front)","vehicle_desc":"West Hills Chrysler Jeep is very proud to offer this great-looking 2016 Jeep Wrangler Sport. 4WD

Its simple, we want you to have a remarkable automotive experience. We do that by providing no cost services most Dealerships do not provide...a Limited Return Policy, Onsite Replacement Transportation, Factory Certified Technicians.


Awards:
* 2016 KBB.com Best Resale Value Awards * 2016 KBB.com 10 Most Fun SUVs * 2016 KBB.com 10 Best SUVs Under $25,000 * 2016 KBB.com 10 Most Awarded Cars * 2016 KBB.com 10 Coolest New Cars Under $25,000","vehicle_chrome_style_id":"","vehicle_model_num":"","vehicle_stock_video":"0","vehicle_img_cnt":"0","veh_more_info":"","vehicle_create_date":"2024-06-15 22:15:44","vehicle_update_date":"2024-06-15 22:15:44","vehicle_md5":"4c23806e15e11f06b07a4504ffe8e619","vehicle_status":"N","vehicle_add":"0","vehicle_delete_flag":"0","vehicle_delete_time":""} 22:25:01 - Rest Call: /client/getAudioVideoConfig/6A904A5F-C37E-5AC3-8C60-63E229C95929?listing_type=Used&video_type=Auto&certified=0&vehicle_make=Jeep 22:25:02 - Curl Response - {"BG_MUSIC":"Rock-3","THEME_BG_COLOR":"ffffff","THEME_ACCENTS_COLOR":"047ec1","THEME_FONT_COLOR":"000000","THEME_FONT":"Din","THEME_STYLE":"Ren","BG_VOL_LEVEL":"0.25","AUDIO_VO":"","VIDEO_SIZE":"VIDEO_LARGE","CUSTOM_INTRO":"","CUSTOM_OUTRO":"","THEME_KEY":"0_0_Auto_Default_0_ALL","THEME_RANK":"2","THEME_CONFIG":"GLOBAL_CONFIG","OLD_BG_STYLE":"0"} 22:25:02 - Return from CheckProfileVal function::0 - DISABLE_PRICE - YES 22:25:02 - Return from CheckProfileVal function::0 - DISABLE_MILEAGE - YES 22:25:02 - Return from CheckProfileVal function::0 - DISABLE_CARSTORY - YES 22:25:02 - Config Information for B1C1B5E3-5F35-CF4A-20C5-3AD12D790B2D - Width:640 - CPO:1/0 - CF:0 - CS:0 - Intro:0 - Outro:0 - Ovleray:2 -THEME:0_0_Auto_Default_0_ALL 22:25:02 - https://images-data.pgiauto.com/uploads/photos/0/2024-06-15/12572138-41c6765bc3ab83581c00a032c43eeb92.jpg /var/www/html/clients/14661/images/B1C1B5E3-5F35-CF4A-20C5-3AD12D790B2D_1.jpg 22:25:02 - https://images-data.pgiauto.com/uploads/photos/0/2024-06-15/2-12572138-666dd7bdb8555.jpg /var/www/html/clients/14661/images/B1C1B5E3-5F35-CF4A-20C5-3AD12D790B2D_2.jpg 22:25:02 - https://images-data.pgiauto.com/uploads/photos/0/2024-06-15/3-12572138-666dd7bdeeded.jpg /var/www/html/clients/14661/images/B1C1B5E3-5F35-CF4A-20C5-3AD12D790B2D_3.jpg 22:25:02 - https://images-data.pgiauto.com/uploads/photos/0/2024-06-15/4-12572138-666dd7be36cc3.jpg /var/www/html/clients/14661/images/B1C1B5E3-5F35-CF4A-20C5-3AD12D790B2D_4.jpg 22:25:02 - Image Count 4 22:25:02 - Setting Female English VO Constants | 0 | 0 22:25:02 - ====HVO Value:1, Audio Value:0=== 22:25:02 - Return from CheckProfileVal function::0 - AUDIO_INTRO - 22:25:02 - Return from CheckProfileVal function::0 - AUDIO_OUTRO - 22:25:02 - ================Process HVO=========== 1 22:25:02 - ================CLIENT SELECT TTS VM VALUE=========== 2 22:25:02 - 2 - 2 - /var/app/video_pre_processor/assets/hvo/ 22:25:02 - Setting Female English VO Constants | 0 | 2 22:25:02 - HVO Soap Call Method - AudoListWMIE 22:25:02 - Getting Text For Audio Files 22:25:02 - HVO Soap Call Method - AudoListTWMIE 22:25:02 - Getting Text For Audio Files emotionalFile 13 22:25:02 - HVO Soap Call Method - GetTTScripts 22:25:02 - Getting Text For Audio Files introEmotionalFile 25 22:25:02 - HVO Soap Call Method - GetTTScripts 22:25:02 - Getting Text For Audio Files scriptFile 24 22:25:02 - HVO Soap Call Method - GetTTScripts 22:25:02 - ================TTS VM VALUE=========== 2 22:25:02 - ================GetVOFiles=========== {"OptionFiles":[{"option_str":"* General Options Intro","option_file":"http:\/\/hvo.flickfusion.net\/audio\/options\/options_fe_audio_file_55.mp3","option_saftey":1},{"option_str":"Traction Control","option_file":"http:\/\/hvo.flickfusion.net\/audio\/options\/options_fe_audio_file_18.mp3","option_saftey":2},{"option_str":"ANTI-LOCK BRAKING SYSTEM","option_file":"http:\/\/hvo.flickfusion.net\/audio\/options\/options_fe_audio_file_70.mp3","option_saftey":1},{"option_str":"Stability Control","option_file":"http:\/\/hvo.flickfusion.net\/audio\/options\/options_fe_audio_file_17.mp3","option_saftey":2},{"option_str":"Dual Air Bags","option_file":"http:\/\/hvo.flickfusion.net\/audio\/options\/options_fe_audio_file_154.mp3","option_saftey":2},{"option_str":"air conditioning","option_file":"http:\/\/hvo.flickfusion.net\/audio\/options\/options_fe_audio_file_1419.mp3","option_saftey":1},{"option_str":"Power Steering","option_file":"http:\/\/hvo.flickfusion.net\/audio\/options\/options_fe_audio_file_244.mp3","option_saftey":1},{"option_str":"Power Steering","option_file":"http:\/\/hvo.flickfusion.net\/audio\/options\/options_fe_audio_file_244.mp3","option_saftey":1},{"option_str":"Cruise Control","option_file":"http:\/\/hvo.flickfusion.net\/audio\/options\/options_fe_audio_file_134.mp3","option_saftey":1},{"option_str":"4-Wheel Disc Brakes","option_file":"http:\/\/hvo.flickfusion.net\/audio\/options\/options_fe_audio_file_63.mp3","option_saftey":1},{"option_str":"Center Arm Rest","option_file":"http:\/\/hvo.flickfusion.net\/audio\/options\/options_fe_audio_file_119.mp3","option_saftey":1},{"option_str":"8 Speakers","option_file":"http:\/\/hvo.flickfusion.net\/audio\/options\/options_fe_audio_file_971.mp3","option_saftey":1},{"option_str":"CD Player","option_file":"http:\/\/hvo.flickfusion.net\/audio\/options\/options_fe_audio_file_111.mp3","option_saftey":1},{"option_str":"POWER BRAKES","option_file":"http:\/\/hvo.flickfusion.net\/audio\/options\/options_fe_audio_file_223.mp3","option_saftey":1},{"option_str":"FOG LIGHTS","option_file":"http:\/\/hvo.flickfusion.net\/audio\/options\/options_fe_audio_file_167.mp3","option_saftey":1},{"option_str":"Compass","option_file":"http:\/\/hvo.flickfusion.net\/audio\/options\/options_fe_audio_file_133.mp3","option_saftey":1},{"option_str":"Clock","option_file":"http:\/\/hvo.flickfusion.net\/audio\/options\/options_fe_audio_file_129.mp3","option_saftey":1},{"option_str":"TRIP ODOMETER","option_file":"http:\/\/hvo.flickfusion.net\/audio\/options\/options_fe_audio_file_302.mp3","option_saftey":1},{"option_str":"Trip Computer","option_file":"http:\/\/hvo.flickfusion.net\/audio\/options\/options_fe_audio_file_321.mp3","option_saftey":1},{"option_str":"Compass","option_file":"http:\/\/hvo.flickfusion.net\/audio\/options\/options_fe_audio_file_133.mp3","option_saftey":1},{"option_str":"FOG LIGHTS","option_file":"http:\/\/hvo.flickfusion.net\/audio\/options\/options_fe_audio_file_167.mp3","option_saftey":1},{"option_str":"Rear Window Defroster","option_file":"http:\/\/hvo.flickfusion.net\/audio\/options\/options_fe_audio_file_269.mp3","option_saftey":1},{"option_str":"Electronic Stability Control","option_file":"http:\/\/hvo.flickfusion.net\/audio\/options\/options_fe_audio_file_162.mp3","option_saftey":1},{"option_str":"EBD","option_file":"http:\/\/hvo.flickfusion.net\/audio\/options\/options_fe_audio_file_37.mp3","option_saftey":2},{"option_str":"Air Bag(s)","option_file":"http:\/\/hvo.flickfusion.net\/audio\/options\/options_fe_audio_file_537.mp3","option_saftey":1},{"option_str":"Brake Assist","option_file":"http:\/\/hvo.flickfusion.net\/audio\/options\/options_fe_audio_file_104.mp3","option_saftey":1},{"option_str":"TACHOMETER","option_file":"http:\/\/hvo.flickfusion.net\/audio\/options\/options_fe_audio_file_299.mp3","option_saftey":1},{"option_str":"Front stabilizer bar","option_file":"http:\/\/hvo.flickfusion.net\/audio\/options\/options_fe_audio_file_182.mp3","option_saftey":1},{"option_str":"SIRIUS SATELLITE RADIO ","option_file":"http:\/\/hvo.flickfusion.net\/audio\/options\/options_fe_audio_file_772.mp3","option_saftey":1},{"option_str":"TILT STEERING WHEEL","option_file":"http:\/\/hvo.flickfusion.net\/audio\/options\/options_fe_audio_file_300.mp3","option_saftey":1},{"option_str":"Driver Vanity Mirror","option_file":"http:\/\/hvo.flickfusion.net\/audio\/options\/options_fe_audio_file_152.mp3","option_saftey":1},{"option_str":"FRONT BUCKET SEATS","option_file":"http:\/\/hvo.flickfusion.net\/audio\/options\/options_fe_audio_file_168.mp3","option_saftey":1},{"option_str":"Passenger Vanity Mirror","option_file":"http:\/\/hvo.flickfusion.net\/audio\/options\/options_fe_audio_file_233.mp3","option_saftey":1},{"option_str":"SPEED CONTROL","option_file":"http:\/\/hvo.flickfusion.net\/audio\/options\/options_fe_audio_file_375.mp3","option_saftey":1},{"option_str":"Convertible Soft Top","option_file":"http:\/\/hvo.flickfusion.net\/audio\/options\/options_fe_audio_file_351.mp3","option_saftey":1},{"option_str":"Tinted Glass","option_file":"http:\/\/hvo.flickfusion.net\/audio\/options\/options_fe_audio_file_306.mp3","option_saftey":1},{"option_str":"REAR STABILIZER BAR","option_file":"http:\/\/hvo.flickfusion.net\/audio\/options\/options_fe_audio_file_859.mp3","option_saftey":1},{"option_str":"Tire Pressure Monitoring System","option_file":"http:\/\/hvo.flickfusion.net\/audio\/options\/options_fe_audio_file_307.mp3","option_saftey":1},{"option_str":"Roll Stability Control","option_file":"http:\/\/hvo.flickfusion.net\/audio\/options\/options_fe_audio_file_1503.mp3","option_saftey":1},{"option_str":"Braking Assist","option_file":"http:\/\/hvo.flickfusion.net\/audio\/options\/options_fe_audio_file_1430.mp3","option_saftey":1},{"option_str":"RADIO DATA SYSTEM","option_file":"http:\/\/hvo.flickfusion.net\/audio\/options\/options_fe_audio_file_692.mp3","option_saftey":1},{"option_str":"LOW TIRE PRESSURE WARNING","option_file":"http:\/\/hvo.flickfusion.net\/audio\/options\/options_fe_audio_file_689.mp3","option_saftey":1}],"yearFile":"http:\/\/hvo.flickfusion.net\/audio\/year\/year_fe_audio_file_33.mp3","makeFile":"http:\/\/hvo.flickfusion.net\/audio\/makes\/make_name_fe_audio_file_22.mp3","modelFile":"http:\/\/hvo.flickfusion.net\/audio\/mdlnames\/model_name_fe_audio_file_168.mp3","modelHighlightFile":"http:\/\/hvo.flickfusion.net\/audio\/models\/model_fe_audio_file_168.mp3","styleFile":"","bodytypeFile":"","transFile":"","engineFile":"","cylindersFile":"http:\/\/hvo.flickfusion.net\/audio\/domain_cylinders\/cylinder_fe_audio_file_5.mp3","driveTrainFile":"http:\/\/hvo.flickfusion.net\/audio\/domain_drivetrain\/drivetrain_fe_audio_file_5.mp3","priceFile":"http:\/\/hvo.flickfusion.net\/audio\/prices\/price_fe_audio_file_12.mp3","mileageFile":"http:\/\/hvo.flickfusion.net\/audio\/mileage\/miles_fe_audio_file_11.mp3","carfaxFile":"","emotionalFile":"http:\/\/hvo.flickfusion.net\/audio\/emotional\/emotional_fe_audio_file_13.mp3","introEmotionalFile":"http:\/\/hvo.flickfusion.net\/audio\/emotional\/ie_fe_audio_file_25.mp3","scriptFile":"http:\/\/hvo.flickfusion.net\/audio\/domain_scripts\/script_fe_audio_file_24.mp3","statusCode":"1","statusMessage":"Audio Files Sent"} 22:25:02 - /var/www/html/clients/14661/audio/B1C1B5E3-5F35-CF4A-20C5-3AD12D790B2D.wav 22:25:02 - ================Process HVO SOAP CALL CMD=========== /usr/bin/sox STATUS CODE 1 22:25:02 - /var/app/video_pre_processor/assets/hvo/ie_fe_audio_file_25.wav PlayTime:1.93 22:25:02 - /var/app/video_pre_processor/assets/hvo/year_fe_audio_file_33.wav PlayTime:1.63 22:25:02 - /var/app/video_pre_processor/assets/hvo/model_name_fe_audio_file_168.wav PlayTime:0.71 22:25:02 - /var/app/video_pre_processor/assets/hvo/model_fe_audio_file_168.wav PlayTime:11.39 22:25:02 - Skipping VTT for BODY - bodytypeFile 22:25:02 - /var/app/video_pre_processor/assets/hvo/price_fe_audio_file_12.wav PlayTime:2.95 22:25:02 - KM Check : 41662 | 0 22:25:02 - /var/app/video_pre_processor/assets/hvo/miles_fe_audio_file_11.wav PlayTime:3.53 22:25:02 - Curl Response - {"error":"Vehicle options not found for vehicle key[E5DF912E-A9FB-367B-0C8D-F470360752BD]"} 22:25:02 - ============={"error":"Vehicle options not found for vehicle key[E5DF912E-A9FB-367B-0C8D-F470360752BD]"}=============== 22:25:02 - Skipping Duplicate Option Power Steering 22:25:02 - Skipping Duplicate Option Compass 22:25:02 - Skipping Duplicate Option FOG LIGHTS 22:25:02 - /var/app/video_pre_processor/assets/hvo/options_fe_audio_file_55.wav PlayTime:2.35 22:25:02 - /var/app/video_pre_processor/assets/hvo/options_fe_audio_file_18.wav PlayTime:1.31 22:25:02 - /var/app/video_pre_processor/assets/hvo/options_fe_audio_file_70.wav PlayTime:1.7 22:25:02 - /var/app/video_pre_processor/assets/hvo/options_fe_audio_file_17.wav PlayTime:1.25 22:25:02 - /var/app/video_pre_processor/assets/hvo/options_fe_audio_file_154.wav PlayTime:1.38 22:25:02 - /var/app/video_pre_processor/assets/hvo/options_fe_audio_file_1419.wav PlayTime:1.01 22:25:02 - /var/app/video_pre_processor/assets/hvo/options_fe_audio_file_244.wav PlayTime:1.02 22:25:02 - /var/app/video_pre_processor/assets/hvo/options_fe_audio_file_134.wav PlayTime:1.02 22:25:02 - /var/app/video_pre_processor/assets/hvo/options_fe_audio_file_63.wav PlayTime:1.57 22:25:02 - /var/app/video_pre_processor/assets/hvo/options_fe_audio_file_119.wav PlayTime:1.28 22:25:02 - /var/app/video_pre_processor/assets/hvo/options_fe_audio_file_971.wav PlayTime:1.15 22:25:02 - ======= ALL Options ========== null 22:25:02 - /var/www/html/clients/14661/audio/B1C1B5E3-5F35-CF4A-20C5-3AD12D790B2D_option.wav 22:25:02 - /usr/bin/sox /var/app/video_pre_processor/assets/hvo/options_fe_audio_file_55.wav /var/app/video_pre_processor/assets/hvo/options_fe_audio_file_18.wav /var/app/video_pre_processor/assets/hvo/options_fe_audio_file_70.wav /var/app/video_pre_processor/assets/hvo/options_fe_audio_file_17.wav /var/app/video_pre_processor/assets/hvo/options_fe_audio_file_154.wav /var/app/video_pre_processor/assets/hvo/options_fe_audio_file_1419.wav /var/app/video_pre_processor/assets/hvo/options_fe_audio_file_244.wav /var/app/video_pre_processor/assets/hvo/options_fe_audio_file_134.wav /var/app/video_pre_processor/assets/hvo/options_fe_audio_file_63.wav /var/app/video_pre_processor/assets/hvo/options_fe_audio_file_119.wav /var/app/video_pre_processor/assets/hvo/options_fe_audio_file_971.wav /var/www/html/clients/14661/audio/B1C1B5E3-5F35-CF4A-20C5-3AD12D790B2D_option.wav 22:25:02 - /var/www/html/clients/14661/audio/B1C1B5E3-5F35-CF4A-20C5-3AD12D790B2D_option.wav PlayTime:15.04 22:25:02 - Skipping VTT for CARFAX - carfaxFile 22:25:02 - /var/app/video_pre_processor/assets/hvo/emotional_fe_audio_file_13.wav PlayTime:4.65 22:25:02 - /usr/bin/sox /var/app/video_pre_processor/assets/hvo/ie_fe_audio_file_25.wav /var/app/video_pre_processor/assets/hvo/year_fe_audio_file_33.wav /var/app/video_pre_processor/assets/hvo/model_name_fe_audio_file_168.wav /var/app/video_pre_processor/assets/hvo/model_fe_audio_file_168.wav /var/app/video_pre_processor/assets/hvo/price_fe_audio_file_12.wav /var/app/video_pre_processor/assets/hvo/miles_fe_audio_file_11.wav /var/www/html/clients/14661/audio/B1C1B5E3-5F35-CF4A-20C5-3AD12D790B2D_option.wav /var/app/video_pre_processor/assets/hvo/emotional_fe_audio_file_13.wav /var/www/html/clients/14661/audio/B1C1B5E3-5F35-CF4A-20C5-3AD12D790B2D_temp1.wav 22:25:02 - Return from CheckProfileVal function::0 - REPLACE_FULL_AUDIO - 22:25:02 - Return from CheckProfileVal function::0 - REPLACE_FULL_AUDIO_NEW - 22:25:02 - ========REPALCE AUDIO TRACK LISTING TYPE used \ n USED VALUE : 0 NEW AUDIO VALUE : { 0} ============== 22:25:02 - Video Length for audio merge: 0 22:25:02 - /root/bin/ffmpeg -i /var/www/html/clients/14661/audio/B1C1B5E3-5F35-CF4A-20C5-3AD12D790B2D.wav -f mp3 -ar 44100 -ab 320 -ac 2 -y /var/www/html/clients/14661/audio/B1C1B5E3-5F35-CF4A-20C5-3AD12D790B2D.mp3 ffmpeg version N-109053-g9b13078c6a Copyright (c) 2000-2022 the FFmpeg developers built with gcc 5.4.0 (GCC) configuration: --prefix=/root/ffmpeg_build --pkg-config-flags=--static --extra-cflags=-I/root/ffmpeg_build/include --extra-ldflags=-L/root/ffmpeg_build/lib --extra-libs=-lpthread --extra-libs=-lm --bindir=/root/bin --enable-gpl --enable-libfdk_aac --enable-libfreetype --enable-libmp3lame --enable-libopus --enable-libvpx --enable-libx264 --enable-openssl --enable-libx265 --enable-nonfree --enable-libvidstab libavutil 57. 42.100 / 57. 42.100 libavcodec 59. 52.101 / 59. 52.101 libavformat 59. 34.101 / 59. 34.101 libavdevice 59. 8.101 / 59. 8.101 libavfilter 8. 50.100 / 8. 50.100 libswscale 6. 8.112 / 6. 8.112 libswresample 4. 9.100 / 4. 9.100 libpostproc 56. 7.100 / 56. 7.100 Guessed Channel Layout for Input Stream #0.0 : stereo Input #0, wav, from '/var/www/html/clients/14661/audio/B1C1B5E3-5F35-CF4A-20C5-3AD12D790B2D.wav': Duration: 00:00:41.82, bitrate: 1411 kb/s Stream #0:0: Audio: pcm_s16le ([1][0][0][0] / 0x0001), 44100 Hz, 2 channels, s16, 1411 kb/s Stream mapping: Stream #0:0 -> #0:0 (pcm_s16le (native) -> mp3 (libmp3lame)) Press [q] to stop, [?] for help [libmp3lame @ 0x4043480] Bitrate 320 is extremely low, maybe you mean 320k The bitrate parameter is set too low. It takes bits/s as argument, not kbits/s Output #0, mp3, to '/var/www/html/clients/14661/audio/B1C1B5E3-5F35-CF4A-20C5-3AD12D790B2D.mp3': Metadata: TSSE : Lavf59.34.101 Stream #0:0: Audio: mp3, 44100 Hz, stereo, s16p, 0 kb/s Metadata: encoder : Lavc59.52.101 libmp3lame size= 0kB time=-577014:32:22.77 bitrate= -0.0kbits/s speed=N/A size= 108kB time=00:00:06.89 bitrate= 128.3kbits/s speed=13.8x size= 217kB time=00:00:13.87 bitrate= 128.4kbits/s speed=13.8x size= 256kB time=00:00:20.97 bitrate= 100.0kbits/s speed=13.9x size= 256kB time=00:00:27.92 bitrate= 75.1kbits/s speed=13.9x size= 512kB time=00:00:35.16 bitrate= 119.3kbits/s speed= 14x size= 655kB time=00:00:41.82 bitrate= 128.2kbits/s speed= 14x video:0kB audio:654kB subtitle:0kB other streams:0kB global headers:0kB muxing overhead: 0.037762% 22:25:05 - /var/app/video_pre_processor/assets/vidbot/_files/audio/Rock-3.mp3 PlayTime:842.97 22:25:05 - Using Rock-3.mp3 - /var/app/video_pre_processor/assets/vidbot/_files/audio/Rock-3.mp3 22:25:05 - BG MUSIC FILE /var/app/video_pre_processor/assets/vidbot/_files/audio/Rock-3.mp3 22:25:05 - BG AUDIO CLIENT OVELAY VALUE : 2 22:25:05 - /var/www/html/clients/14661/audio/B1C1B5E3-5F35-CF4A-20C5-3AD12D790B2D.wav PlayTime:41.82 22:25:05 - VParent - VOLEN:43.82 | /var/www/html/clients/14661/audio/B1C1B5E3-5F35-CF4A-20C5-3AD12D790B2D.mp3 | /var/app/video_pre_processor/assets/vidbot/_files/audio/Rock-3.mp3 | /var/www/html/clients/14661/audio/B1C1B5E3-5F35-CF4A-20C5-3AD12D790B2D.wav 22:25:05 - AUDIO PROCESS RETURN VALUE: - 1 22:25:05 - update message_remote_queue set video_process_start = '2024-06-15 22:25:05' where queue_id = 284513 22:25:05 - CLIENT INFO DATA {"client_id":"14661","client_fk":"6A904A5F-C37E-5AC3-8C60-63E229C95929","client_acc_id":"22","client_name":"West Hills CDJR","client_desc":"West Hills CDJR","client_color":"000000","client_player_color":"","client_textcolor":"","client_tts_text":"","client_tts_options":"","client_inactive":"0","client_createdate":"2021-02-16 11:00:31","client_enddate":"","client_update":"2024-05-01 15:18:18","client_email_forward":"plavitt@haselwood.com","client_dealer_id":"WHCDJR","client_franchise_number":"","client_salesperson_name":"Sales","client_address":"900 West Hills Blvd","client_city":"Bremerton","client_state":"WA","client_zip":"98312","client_phone":"360-377-4418","client_url":"https:\/\/www.westhillscjd.com\/","client_fb_id":"","client_km":"0","client_special_price":"0","client_demo":"0","client_utube_flag":"0","client_cvo":"0","client_tts":"0","client_live_uv":"1","client_live_overlay":"2","client_av":"0","client_gv":"0","client_af":"0","client_video_email":"0","client_carfax":"0","client_intro":"0","client_outro":"0","client_slider":"0","client_music_id":"15","client_ei":"0","client_tts_vm":"2","client_hvo":"1","client_mobile":"0","client_portal":"0","client_instavid":"0","client_new_stock_video":"0","client_vidmagnet":"0","client_auto_play":"1","client_cpo":"1","client_vid_stab":"0","client_vp":"0","client_xl":"0","client_carstory":"0","client_360_player":"1","client_ece":"0","client_capture_video":"0","client_new_cvo":"0","client_pip":"1","client_account_id":"","client_crm_email":"","client_crm_dealer_id":"","client_crm_dealer_key":"","client_archive":"0","client_damage_photo":"0","client_package":"30","client_video_size":"HDLARGE","client_video_style":"RANDOM","client_lat_lng":"","client_comments":"","ftp_extract_images":"1","CONVERT_360_PA_TO_VID":"1","CONVERT_360_TO_VID":"1","SHOW_CARSTORY":"0"} 22:25:05 - Map Exists: /var/www/html/clients/14661/library/map.jpg 22:25:05 - Checking CUSTOM_INTRO 22:25:05 - Checking CUSTOM_OUTRO 22:25:05 - ================CREATE VIDEO START =========== 22:25:05 - ================VIDEO JSON GEN START ============== 22:25:05 - Video Size 360 22:25:05 - ===========Video Theme font ================Dinot 22:25:05 - ==========Video fk : ==============B1C1B5E3-5F35-CF4A-20C5-3AD12D790B2D 22:25:05 - ==============AUDIO VIDEO CONFIG : =========={"BG_MUSIC":"Rock-3","THEME_BG_COLOR":"ffffff","THEME_ACCENTS_COLOR":"047ec1","THEME_FONT_COLOR":"000000","THEME_FONT":"Dinot","THEME_STYLE":"Ren","BG_VOL_LEVEL":"0.25","AUDIO_VO":"","VIDEO_SIZE":"VIDEO_LARGE","CUSTOM_INTRO":"","CUSTOM_OUTRO":"","THEME_KEY":"0_0_Auto_Default_0_ALL","THEME_RANK":"2","THEME_CONFIG":"GLOBAL_CONFIG","OLD_BG_STYLE":"0"} 22:25:05 - CLIENT FKEY : 6A904A5F-C37E-5AC3-8C60-63E229C95929 VIDEO FKEY : B1C1B5E3-5F35-CF4A-20C5-3AD12D790B2D VEHICLE FKEY : 22:25:05 - INFO:: Video Type:SS Video Size:360 22:25:05 - Return from CheckProfileVal function::0 - DISPLAY_MILEAGE - NO 22:25:05 - Return from CheckProfileVal function::0 - DISPLAY_MILEAGE - NO 22:25:05 - Return from CheckProfileVal function::0 - DISPLAY_PRICE - NO 22:25:05 - Return from CheckProfileVal function::0 - DISPLAY_PRICE - NO 22:25:05 - ==================ClipsGen START ===================== 22:25:05 - Return from CheckProfileVal function::0 - AUDIO_VO - NO_VO 22:25:05 - Return from CheckProfileVal function::0 - AUDIO_VO - NO_VO 22:25:05 - Return from CheckProfileVal function::0 - AUDIO_VO - LIVE_VO 22:25:05 - Return from CheckProfileVal function::0 - AUDIO_VO - LIVE_VO 22:25:05 - Return from CheckProfileVal function::0 - DISPLAY_OPTIONS - NO 22:25:05 - Return from CheckProfileVal function::0 - DISPLAY_OPTIONS - NO 22:25:05 - Return from CheckProfileVal function::0 - DISPLAY_PRICE - NO 22:25:05 - Return from CheckProfileVal function::0 - DISPLAY_PRICE - NO 22:25:05 - Return from CheckProfileVal function::0 - DISABLE_PRICE - YES 22:25:05 - Return from CheckProfileVal function::0 - DISPLAY_MILEAGE - NO 22:25:05 - Return from CheckProfileVal function::0 - DISPLAY_MILEAGE - NO 22:25:05 - Return from CheckProfileVal function::0 - DISPLAY_INFO - NO 22:25:05 - Return from CheckProfileVal function::0 - DISPLAY_INFO - NO 22:25:05 - Return from CheckProfileVal function::0 - DISPLAY_TITLE_WSNAME - NO 22:25:05 - Return from CheckProfileVal function::0 - DISPLAY_TITLE_WSNAME - NO 22:25:05 - Return from CheckProfileVal function::0 - DISPLAY_ALL_OVERLAYS - NO 22:25:05 - Return from CheckProfileVal function::0 - DISPLAY_ALL_OVERLAYS - NO 22:25:05 - Return from CheckProfileVal function::0 - DISPLAY_MAP - NO 22:25:05 - Return from CheckProfileVal function::0 - DISPLAY_MAP - NO 22:25:05 - =========THEME STYLE-FONT :Ren - Din ============ 22:25:05 - /usr/bin/sox /var/app/video_pre_processor/assets/music/silence_3.wav /var/www/html/clients/14661/audio/B1C1B5E3-5F35-CF4A-20C5-3AD12D790B2D.wav /var/www/html/clients/14661/audio/B1C1B5E3-5F35-CF4A-20C5-3AD12D790B2D_info_audio.wav 22:25:06 - /var/app/video_pre_processor/assets/vidbot/_files/audio/Rock-3.mp3 PlayTime:842.97 22:25:06 - Return from CheckProfileVal function::0 - BG_MUSIC_OVER_ALL_CLIPS - YES 22:25:06 - Return from CheckProfileVal function::0 - BG_MUSIC_OVER_ALL_CLIPS - YES 22:25:06 - AUDIO TIMER: {"INTRO":0,"YEAR":1.93,"MODEL":3.5599999999999996,"HIGH":4.27,"PRICE":15.66,"MILE":18.61,"ALL_OPTIONS":{"* General Options Intro":22.14,"Traction Control":24.490000000000002,"ANTI-LOCK BRAKING SYSTEM":25.8,"Stability Control":27.5,"Dual Air Bags":28.75,"air conditioning":30.13,"Power Steering":31.14,"Cruise Control":32.160000000000004,"4-Wheel Disc Brakes":33.18000000000001,"Center Arm Rest":34.75000000000001,"8 Speakers":36.03000000000001},"OPTIONS":24.14,"OPTIONS_AUD_LENGTH":15.04,"ENDFILE":37.18000000000001} 22:25:06 - ===================ClipsGen END ======================== 22:25:06 - INFO:: VIDEO JSON : "B1C1B5E3-5F35-CF4A-20C5-3AD12D790B2D.json" 22:25:06 - node /var/app/Vidbot-V2/dist/vidbot.js --input /var/www/html/clients/14661/video/B1C1B5E3-5F35-CF4A-20C5-3AD12D790B2D.json --log debug > /var/www/html/clients/14661/video/B1C1B5E3-5F35-CF4A-20C5-3AD12D790B2D.log