22:26:21 - ==========Video fk : ==============5B4A6AFA-3D99-C38B-DE70-36DECA40205C
22:26:21 - ==============AUDIO VIDEO CONFIG : =========={"BG_MUSIC":"RF10_EDM_3","THEME_BG_COLOR":"ffffff","THEME_ACCENTS_COLOR":"047ec1","THEME_FONT_COLOR":"000000","THEME_FONT":"Dinot","THEME_STYLE":"Ren","BG_VOL_LEVEL":"0.25","AUDIO_VO":"","VIDEO_SIZE":"VIDEO_LARGE","CUSTOM_INTRO":"","CUSTOM_OUTRO":"","THEME_KEY":"0_0_Auto_Default_0_ALL","THEME_RANK":"2","THEME_CONFIG":"GLOBAL_CONFIG","OLD_BG_STYLE":"0"}
22:26:21 - CLIENT FKEY :  DBB57ADC-B939-876B-17B2-85DA3C01E7D1  VIDEO FKEY :  5B4A6AFA-3D99-C38B-DE70-36DECA40205C  VEHICLE FKEY :   
22:26:21 - INFO:: Video Type:SS Video Size:360 
22:26:21 - Return from CheckProfileVal function::0 - DISPLAY_MILEAGE - NO
22:26:21 - Return from CheckProfileVal function::0 - DISPLAY_MILEAGE - NO
22:26:21 - Return from CheckProfileVal function::0 - DISPLAY_PRICE - NO
22:26:21 - Return from CheckProfileVal function::0 - DISPLAY_PRICE - NO
22:26:21 - ==================ClipsGen START  =====================

22:26:21 - Return from CheckProfileVal function::0 - AUDIO_VO - NO_VO
22:26:21 - Return from CheckProfileVal function::0 - AUDIO_VO - NO_VO
22:26:21 - Return from CheckProfileVal function::0 - AUDIO_VO - LIVE_VO
22:26:21 - Return from CheckProfileVal function::0 - AUDIO_VO - LIVE_VO
22:26:21 - Return from CheckProfileVal function::0 - DISPLAY_OPTIONS - NO
22:26:21 - Return from CheckProfileVal function::0 - DISPLAY_OPTIONS - NO
22:26:21 - Return from CheckProfileVal function::0 - DISPLAY_PRICE - NO
22:26:21 - Return from CheckProfileVal function::0 - DISPLAY_PRICE - NO
22:26:21 - Return from CheckProfileVal function::0 - DISABLE_PRICE - YES
22:26:21 - Return from CheckProfileVal function::0 - DISPLAY_MILEAGE - NO
22:26:21 - Return from CheckProfileVal function::0 - DISPLAY_MILEAGE - NO
22:26:21 - Return from CheckProfileVal function::0 - DISPLAY_INFO - NO
22:26:21 - Return from CheckProfileVal function::0 - DISPLAY_INFO - NO
22:26:21 - Return from CheckProfileVal function::0 - DISPLAY_TITLE_WSNAME - NO
22:26:21 - Return from CheckProfileVal function::0 - DISPLAY_TITLE_WSNAME - NO
22:26:21 - Return from CheckProfileVal function::0 - DISPLAY_ALL_OVERLAYS - NO
22:26:21 - Return from CheckProfileVal function::0 - DISPLAY_ALL_OVERLAYS - NO
22:26:21 - Return from CheckProfileVal function::0 - DISPLAY_MAP - NO
22:26:21 - Return from CheckProfileVal function::0 - DISPLAY_MAP - NO
22:26:21 297 - ShellApp::ResizeImage - /var/www/html/clients/9606/library/map.jpg - /var/www/html/clients/9606/library/width_map_360.jpg - 640
22:26:21 - Check Height 409.6  0 - Image Type: 2
22:26:21 276 - ShellApp::CropJPEGImage - 640/325 - 409- 42 

22:26:21 - MAP : /var/www/html/clients/9606/library/map_360.jpg :  FILE SIZE : 212807
22:26:21 - =========THEME STYLE-FONT :Ren - Din  ============
22:26:21 - /usr/bin/sox  /var/app/video_pre_processor/assets/music/silence_3.wav /var/www/html/clients/9606/audio/5B4A6AFA-3D99-C38B-DE70-36DECA40205C.wav /var/www/html/clients/9606/audio/5B4A6AFA-3D99-C38B-DE70-36DECA40205C_info_audio.wav
22:26:21 - /var/app/video_pre_processor/assets/vidbot/_files/audio/RF10_EDM_3.mp3 PlayTime:301.56
22:26:21 - Return from CheckProfileVal function::0 - BG_MUSIC_OVER_ALL_CLIPS - YES
22:26:21 - Return from CheckProfileVal function::0 - BG_MUSIC_OVER_ALL_CLIPS - YES
22:26:21 - AUDIO TIMER: 
{"INTRO":0,"YEAR":2.85,"MODEL":4.73,"HIGH":5.67,"PRICE":18.34,"MILE":21.24,"ALL_OPTIONS":{"* General Options Intro":23.849999999999998,"Navigation System":26.2,"Traction Control":27.79,"Power Liftgate":29.099999999999998,"Power Passenger Seat":30.299999999999997,"Dual Air Bags":31.629999999999995,"air conditioning":33.01,"Leather Wrapped Steering Wheel":34.019999999999996,"Alloy Wheels":35.849999999999994,"heated rear seats":36.99999999999999,"Power Steering":38.38999999999999},"OPTIONS":25.849999999999998,"OPTIONS_AUD_LENGTH":15.57,"ENDFILE":39.41}
22:26:21 - ===================ClipsGen END  ======================== 

22:26:21 - INFO:: VIDEO JSON : "5B4A6AFA-3D99-C38B-DE70-36DECA40205C.json"
22:26:21 - node /var/app/Vidbot-V2/dist/vidbot.js --input /var/www/html/clients/9606/video/5B4A6AFA-3D99-C38B-DE70-36DECA40205C.json --log debug > /var/www/html/clients/9606/video/5B4A6AFA-3D99-C38B-DE70-36DECA40205C.log
22:32:07 - Generated Video File./var/www/html/clients/9606/video/5B4A6AFA-3D99-C38B-DE70-36DECA40205C.mp4
22:32:07 - INFO:: Generated Video File./var/www/html/clients/9606/video/5B4A6AFA-3D99-C38B-DE70-36DECA40205C.mp4
22:32:07 - INFO:: Sprite & Bookmark Option(s) not enabled
22:32:07 - ================VIDEO JSON GEN END RETURN VALUE : 1 ============== 
22:32:07 - ================CREATE VIDEO END =========== 
 ERROR : { 0}
22:32:07 - Start Time:0
22:32:07 - 0##2.85##Looking for the right vehicle? Check out
22:32:07 - 2.85##4.73##The 2024
22:32:07 - 4.73##5.67##Sorento
22:32:07 - 5.67##18.34##The Kia Sorento is a comfortable-riding powerful compact SUV loaded with impressive standard features. Take one look at its stylish sleek design and you'll want to crossover to a Sorento!
22:32:07 - 18.34##21.24##and it is priced below $50000
22:32:07 - 21.24##23.85##This Vehicle has less than 100 miles
22:32:07 - Replacing VTT String * General Options Intro to Here are some of this Vehicle's great options
22:32:07 - 23.85##26.2##Here are some of this Vehicle's great options
22:32:07 - 26.2##27.79##Navigation System
22:32:07 - 27.79##29.1##Traction Control
22:32:07 - 29.1##30.3##Power Liftgate
22:32:07 - 30.3##31.63##Power Passenger Seat
22:32:07 - 31.63##33.01##Dual Air Bags
22:32:07 - 33.01##34.02##air conditioning
22:32:07 - 34.02##35.85##Leather Wrapped Steering Wheel
22:32:07 - 35.85##37##Alloy Wheels
22:32:07 - 37##38.39##heated rear seats
22:32:07 - 38.39##39.41##Power Steering
22:32:07 - 39.41##45.55##Take this vehicle for a spin and see why so many shoppers are now proud owners
22:32:08 - Curl Response - {"code":200,"status":"VTT Updated"}
22:32:08 - Contents - /postVTTString/ - VTT Updated - 200
0##2.85##Looking for the right vehicle? Check out|||2.85##4.73##The 2024|||4.73##5.67##Sorento|||5.67##18.34##The Kia Sorento is a comfortable-riding powerful compact SUV loaded with impressive standard features. Take one look at its stylish sleek design and you'll want to crossover to a Sorento!|||18.34##21.24##and it is priced below $50000|||21.24##23.85##This Vehicle has less than 100 miles|||23.85##26.2##Here are some of this Vehicle's great options|||26.2##27.79##Navigation System|||27.79##29.1##Traction Control|||29.1##30.3##Power Liftgate|||30.3##31.63##Power Passenger Seat|||31.63##33.01##Dual Air Bags|||33.01##34.02##air conditioning|||34.02##35.85##Leather Wrapped Steering Wheel|||35.85##37##Alloy Wheels|||37##38.39##heated rear seats|||38.39##39.41##Power Steering|||39.41##45.55##Take this vehicle for a spin and see why so many shoppers are now proud owners
22:32:08 - VIDEO JSON GEN RETURN VALUE: - 0
22:32:08 - update message_remote_queue set error=0, video = 1, error_message = concat( "", error_message ), process_start = '2024-06-15 22:26:16', audio_process_start = '2024-06-15 22:26:16', audio_process_end = '2024-06-15 22:26:21', video_process_start ='2024-06-15 22:26:21', video_process_end='2024-06-15 22:32:08' where queue_id = 284514
22:32:08 - ==90 - 1 Elapsed Time 351.86 ==

22:32:08 - update queue_status set stat_last_update=NOW(), type_cnt = 90, type_loop_cnt = 1601 where type_val = 'V3'
22:32:08 - Curl Response - {"code":200,"status":"Success:PostServerProcessDetails Posted For IP [209.59.156.167] and Process [V3]"}
22:32:08 - Contents - /postServerProcessDetails/ - Success:PostServerProcessDetails Posted For IP [209.59.156.167] and Process [V3] - 200
22:32:08 - update queue_status set stat_last_update=NOW(), type_cnt = 90, type_loop_cnt = 1601 where type_val = 'V3'
22:32:08 - Curl Response - {"code":200,"status":"Success:PostServerProcessDetails Posted For IP [209.59.156.167] and Process [V3]"}
22:32:08 - Contents - /postServerProcessDetails/ - Success:PostServerProcessDetails Posted For IP [209.59.156.167] and Process [V3] - 200
22:32:08 - ========== 90  - 593 mins 395.71944444444 Video Process / Start:2024-06-15 06:14:02 / Mod:2/16======
22:32:09 - Fetching  Video Jobs Mod Val : 2 Mod Limit : 16 Queue ID : 0 

22:32:09 - ========select * from message_remote_queue, hvo_data where queue_id%16 = 2 and image = 1 and video = 0 and error = 0 and hvo_queue_id = queue_id   order by high_priority_row desc, queue_id asc limit 1==================count =1
22:32:09 - Processing Auto VideoFKEY:621D9103-FB7D-3A79-D013-56E69ED0DA0F - QueueID:284530 
22:32:09 - CLIENT INFO  CLIENT_FK  : 9253DB2E-EC95-FA85-50C8-B98695028D6B ,CLIENT_INFO :{"client_id":"13447","client_fk":"9253DB2E-EC95-FA85-50C8-B98695028D6B","client_acc_id":"75","client_name":"Mtn. View Hyundai","client_desc":"","client_color":"000000","client_player_color":"","client_textcolor":"","client_tts_text":"","client_tts_options":"","client_inactive":"0","client_createdate":"2020-06-17 14:24:31","client_enddate":"","client_update":"2023-11-01 08:26:52","client_email_forward":"leads@mtnviewhyundai.motosnap.com","client_dealer_id":"MV Hyundai","client_franchise_number":"00013","client_salesperson_name":"Don Erwin","client_address":"7154 Nashville Street","client_city":"Ringgold","client_state":"Georgia","client_zip":"37408","client_phone":"706-935-4500","client_url":"www.mvhyundai.com","client_fb_id":"https://www.facebook.com/MtnViewHyundai/","client_km":"0","client_special_price":"0","client_demo":"0","client_utube_flag":"0","client_cvo":"0","client_tts":"0","client_live_uv":"1","client_live_overlay":"2","client_av":"0","client_gv":"0","client_af":"0","client_video_email":"0","client_carfax":"0","client_intro":"0","client_outro":"0","client_slider":"0","client_music_id":"36","client_ei":"0","client_tts_vm":"2","client_hvo":"1","client_mobile":"0","client_portal":"0","client_instavid":"0","client_new_stock_video":"0","client_vidmagnet":"0","client_auto_play":"0","client_cpo":"1","client_vid_stab":"0","client_vp":"0","client_xl":"0","client_carstory":"1","client_360_player":"0","client_ece":"0","client_capture_video":"0","client_new_cvo":"0","client_pip":"1","client_account_id":"","client_crm_email":"","client_crm_dealer_id":"","client_crm_dealer_key":"","client_archive":"0","client_damage_photo":"0","client_package":"0","client_video_size":"HDLARGE","client_video_style":"RANDOM","client_lat_lng":"","client_comments":"drejrhyundai@gmail.com","THUMB_EXTRACT_TIME":"1","SHOW_CARSTORY":"1"}
22:32:09 - Rest Call: /client/videoDetails/9253DB2E-EC95-FA85-50C8-B98695028D6B?video_key=621D9103-FB7D-3A79-D013-56E69ED0DA0F
22:32:09 - Curl Response - {"video_id":"48973548","video_fk":"621D9103-FB7D-3A79-D013-56E69ED0DA0F","vehicle_id":"43180071","video_client_id":"13447","video_script":"Clean CARFAX. Bluetooth, BACKUP CAMERA, Recent Oil Change, Service Records Available, Black\/Black Cloth.
Certification Program Details: Mountain View Certified for 6 months and\/or 6,000 miles. When you purchase this vehicle, you can feel confident in knowing that you're the proud, new owner of a quality vehicle. Other dealerships may promise that their vehicles are in great shape and without problems, but our dealership goes the extra mile. We warrant the powertrain with our Mtn. View Certified Warranty. Key Warranty Benefits Repair or replacement of any covered powertrain component that fails during the warranty period 6 months\/6,000 mile powertrain coverage $100 deductible Emergency roadside assistance Rental car reimbursement Trip interruption coverage What is covered? The Mtn. View Certified Warranty covers all internally lubricated parts plus select non-internally lubricated component parts for the following: Extending your coverage You may want to consider additional protection. A Zurich vehicle service contract - in combination with your Mtn. View Certified Warranty - is a smart way to add protection to additional vehicle systems and extend your coverage. Like the Mtn. View Certified Warranty, Zurich vehicle service contracts cover parts and labor costs to repair or replace major component groups. A vehicle service contract adds only a minimal amount to your monthly vehicle payment, or you may want to take advantage of our interest-free payment plan. Either way, you'll eliminate costly repair bills later on. A vehicle service contract can keep your costs down and keep your vehicle running smoothly. You've made a great decision. As you drive home in your new car, you can feel proud and confident with your choice. Certified.

Awards:
* JD Power Initial Quality Study (IQS) * JD Power Initial Quality Study (IQS), Vehicle Dependability Study (VDS)
** MAY REQUIRE FINANCING THROUGH DEALER FOR INTERNET PRICE ** 2019 Hyundai Santa Fe SE 2.4","video_tts_script":"","video_flv":"\/avavids\/1\/clients\/13447\/video\/621D9103-FB7D-3A79-D013-56E69ED0DA0F.mp4","video_create_time":"2024-05-23 22:18:29","video_update_time":"2024-06-15 22:15:52","audio_length":"0","video_options":"Option Group 01,6 Speakers,AM\/FM radio,Radio: AM\/FM\/MP3 Display Audio,Air Conditioning,Rear window defroster,Power steering,Power windows,Remote keyless entry,Steering wheel mounted audio controls,Four wheel independent suspension,Speed-sensing steering,Traction control,4-Wheel Disc Brakes,ABS brakes,Dual front impact airbags,Dual front side impact airbags,Front anti-roll bar,Low tire pressure warning,Occupant sensing airbag,Overhead airbag,Rear anti-roll bar,Brake assist,Electronic Stability Control,Exterior Parking Camera Rear,Auto High-beam Headlights,Delay-off headlights,Fully automatic headlights,Panic alarm,Security system,Smart Cruise Control with Stop & Go,Bumpers: body-color,Power door mirrors,Spoiler,Apple CarPlay & Android Auto,Driver door bin,Driver vanity mirror,Front reading lights,Illuminated entry,Outside temperature display,Overhead console,Passenger vanity mirror,Rear seat center armrest,Tachometer,Telescoping steering wheel,Tilt steering wheel,Trip computer,Front Bucket Seats,Front Center Armrest,Split folding rear seat,Stain-Resistant Cloth Seating Surfaces,Passenger door bin,17 x 7.0J Alloy Wheels,Alloy wheels,Rear window wiper,Variably intermittent wipers,Axle Ratio 3.798,Bluetooth,BACKUP CAMERA,Recent Oil Change,Service Records Available","video_custom_flag":"0","video_title":"2019 Hyundai Santa Fe","video_local_title":"2019 Hyundai Santa Fe","video_frames":"0","video_image_url":"\/avavids\/1\/clients\/13447\/images\/621D9103-FB7D-3A79-D013-56E69ED0DA0F_","video_pin_id":"0","video_tts_flag":"1","video_hvo_flag":"0","video_share":"1","video_default_flag":"1","video_imgsrc_urls":"http:\/\/vehicle-photos-published.vauto.com\/dc\/cb\/6d\/2d-6a88-4dc9-806a-975cbee2c97a\/image-1.jpg,http:\/\/vehicle-photos-published.vauto.com\/dc\/cb\/6d\/2d-6a88-4dc9-806a-975cbee2c97a\/image-2.jpg,http:\/\/vehicle-photos-published.vauto.com\/dc\/cb\/6d\/2d-6a88-4dc9-806a-975cbee2c97a\/image-3.jpg,http:\/\/vehicle-photos-published.vauto.com\/dc\/cb\/6d\/2d-6a88-4dc9-806a-975cbee2c97a\/image-4.jpg,http:\/\/vehicle-photos-published.vauto.com\/dc\/cb\/6d\/2d-6a88-4dc9-806a-975cbee2c97a\/image-5.jpg,http:\/\/vehicle-photos-published.vauto.com\/dc\/cb\/6d\/2d-6a88-4dc9-806a-975cbee2c97a\/image-6.jpg,http:\/\/vehicle-photos-published.vauto.com\/dc\/cb\/6d\/2d-6a88-4dc9-806a-975cbee2c97a\/image-7.jpg","video_thumbnail_url":"","video_rendering_flag":"1","video_error_rendering":"","video_view_cnt":"11","video_delete_flag":"0","video_delete_time":"","video_batch_proc":"1","video_meta_data":"","video_custom_default":"0","video_external_flv":"https:\/\/gcsimages.s3.us-west-001.backblazeb2.com\/clients\/13447\/video\/621D9103-FB7D-3A79-D013-56E69ED0DA0F.mp4","video_external_wflv":"","video_external_iflv":"","video_custom_uploaded":"0","vehicle_client_id":"13447","vehicle_fkey":"4C25B408-2A10-465B-54C5-1B9146F82FAE","vehicle_uid":"5NMS23AD7KH099103_24452A","vehicle_vin":"5NMS23AD7KH099103","vehicle_stock":"24452A","vehicle_year":"2019","vehicle_make":"Hyundai","vehicle_model":"Santa Fe","vehicle_trim":"SE 2.4","vehicle_price":"17950","vehicle_mileage":"61523","vehicle_int_color":"Black\/Black","vehicle_ext_color":"Earthy Bronze","vehicle_body_type":"SUV","vehicle_listing_type":"Used","vehicle_citympg":"","vehicle_hwympg":"","vehicle_combmpg":"","vehicle_cylinders":"0","vehicle_engine_size":"2.4L I4 DG","vehicle_trans":"8-Speed Automatic with SH","vehicle_drivetrain":"FWD","vehicle_passengers":"0","vehicle_doors":"0","vehicle_certified":"1","vehicle_special":"0","vehicle_options":"Option Group 01,6 Speakers,AM\/FM radio,Radio: AM\/FM\/MP3 Display Audio,Air Conditioning,Rear window defroster,Power steering,Power windows,Remote keyless entry,Steering wheel mounted audio controls,Four wheel independent suspension,Speed-sensing steering,Traction control,4-Wheel Disc Brakes,ABS brakes,Dual front impact airbags,Dual front side impact airbags,Front anti-roll bar,Low tire pressure warning,Occupant sensing airbag,Overhead airbag,Rear anti-roll bar,Brake assist,Electronic Stability Control,Exterior Parking Camera Rear,Auto High-beam Headlights,Delay-off headlights,Fully automatic headlights,Panic alarm,Security system,Smart Cruise Control with Stop & Go,Bumpers: body-color,Power door mirrors,Spoiler,Apple CarPlay & Android Auto,Driver door bin,Driver vanity mirror,Front reading lights,Illuminated entry,Outside temperature display,Overhead console,Passenger vanity mirror,Rear seat center armrest,Tachometer,Telescoping steering wheel,Tilt steering wheel,Trip computer,Front Bucket Seats,Front Center Armrest,Split folding rear seat,Stain-Resistant Cloth Seating Surfaces,Passenger door bin,17 x 7.0J Alloy Wheels,Alloy wheels,Rear window wiper,Variably intermittent wipers,Axle Ratio 3.798,Bluetooth,BACKUP CAMERA,Recent Oil Change,Service Records Available","vehicle_desc":"Clean CARFAX. Bluetooth, BACKUP CAMERA, Recent Oil Change, Service Records Available, Black\/Black Cloth.
Certification Program Details: Mountain View Certified for 6 months and\/or 6,000 miles. When you purchase this vehicle, you can feel confident in knowing that you're the proud, new owner of a quality vehicle. Other dealerships may promise that their vehicles are in great shape and without problems, but our dealership goes the extra mile. We warrant the powertrain with our Mtn. View Certified Warranty. Key Warranty Benefits Repair or replacement of any covered powertrain component that fails during the warranty period 6 months\/6,000 mile powertrain coverage $100 deductible Emergency roadside assistance Rental car reimbursement Trip interruption coverage What is covered? The Mtn. View Certified Warranty covers all internally lubricated parts plus select non-internally lubricated component parts for the following: Extending your coverage You may want to consider additional protection. A Zurich vehicle service contract - in combination with your Mtn. View Certified Warranty - is a smart way to add protection to additional vehicle systems and extend your coverage. Like the Mtn. View Certified Warranty, Zurich vehicle service contracts cover parts and labor costs to repair or replace major component groups. A vehicle service contract adds only a minimal amount to your monthly vehicle payment, or you may want to take advantage of our interest-free payment plan. Either way, you'll eliminate costly repair bills later on. A vehicle service contract can keep your costs down and keep your vehicle running smoothly. You've made a great decision. As you drive home in your new car, you can feel proud and confident with your choice. Certified.

Awards:
* JD Power Initial Quality Study (IQS) * JD Power Initial Quality Study (IQS), Vehicle Dependability Study (VDS)
** MAY REQUIRE FINANCING THROUGH DEALER FOR INTERNET PRICE ** 2019 Hyundai Santa Fe SE 2.4","vehicle_chrome_style_id":"","vehicle_model_num":"","vehicle_stock_video":"0","vehicle_img_cnt":"0","veh_more_info":"","vehicle_create_date":"2024-05-23 22:18:29","vehicle_update_date":"2024-06-15 22:15:47","vehicle_md5":"78a56b8175c6d5d786043ee0e52eda11","vehicle_status":"U","vehicle_add":"0","vehicle_delete_flag":"0","vehicle_delete_time":""} 22:32:09 - Rest Call: /client/getAudioVideoConfig/9253DB2E-EC95-FA85-50C8-B98695028D6B?listing_type=Used&video_type=Auto&certified=1&vehicle_make=Hyundai 22:32:09 - Curl Response - {"BG_MUSIC":"RF3_Easy_Listening","THEME_BG_COLOR":"ffffff","THEME_ACCENTS_COLOR":"047ec1","THEME_FONT_COLOR":"000000","THEME_FONT":"Din","THEME_STYLE":"Ren","BG_VOL_LEVEL":"0.10","AUDIO_VO":"VO","VIDEO_SIZE":"VIDEO_LARGE","CUSTOM_INTRO":"","CUSTOM_OUTRO":"","THEME_KEY":"75_13447_Auto_Default_0_ALL","THEME_RANK":"2","THEME_CONFIG":"CLIENT_CONFIG","DISABLE_PRICE":"YES","DISPLAY_PRICE":"NO","OLD_BG_STYLE":"0"} 22:32:09 - Return from CheckProfileVal function::1 - DISABLE_PRICE - YES 22:32:09 - Return from CheckProfileVal function::0 - DISABLE_MILEAGE - YES 22:32:09 - Return from CheckProfileVal function::0 - DISABLE_CARSTORY - YES 22:32:09 - Config Information for 621D9103-FB7D-3A79-D013-56E69ED0DA0F - Width:640 - CPO:1/1 - CF:0 - CS:1 - Intro:0 - Outro:0 - Ovleray:2 -THEME:75_13447_Auto_Default_0_ALL 22:32:09 - http://vehicle-photos-published.vauto.com/dc/cb/6d/2d-6a88-4dc9-806a-975cbee2c97a/image-1.jpg /var/www/html/clients/13447/images/621D9103-FB7D-3A79-D013-56E69ED0DA0F_1.jpg 22:32:09 - http://vehicle-photos-published.vauto.com/dc/cb/6d/2d-6a88-4dc9-806a-975cbee2c97a/image-2.jpg /var/www/html/clients/13447/images/621D9103-FB7D-3A79-D013-56E69ED0DA0F_2.jpg 22:32:09 - http://vehicle-photos-published.vauto.com/dc/cb/6d/2d-6a88-4dc9-806a-975cbee2c97a/image-3.jpg /var/www/html/clients/13447/images/621D9103-FB7D-3A79-D013-56E69ED0DA0F_3.jpg 22:32:09 - http://vehicle-photos-published.vauto.com/dc/cb/6d/2d-6a88-4dc9-806a-975cbee2c97a/image-4.jpg /var/www/html/clients/13447/images/621D9103-FB7D-3A79-D013-56E69ED0DA0F_4.jpg 22:32:09 - http://vehicle-photos-published.vauto.com/dc/cb/6d/2d-6a88-4dc9-806a-975cbee2c97a/image-5.jpg /var/www/html/clients/13447/images/621D9103-FB7D-3A79-D013-56E69ED0DA0F_5.jpg 22:32:09 - http://vehicle-photos-published.vauto.com/dc/cb/6d/2d-6a88-4dc9-806a-975cbee2c97a/image-6.jpg /var/www/html/clients/13447/images/621D9103-FB7D-3A79-D013-56E69ED0DA0F_6.jpg 22:32:09 - http://vehicle-photos-published.vauto.com/dc/cb/6d/2d-6a88-4dc9-806a-975cbee2c97a/image-7.jpg /var/www/html/clients/13447/images/621D9103-FB7D-3A79-D013-56E69ED0DA0F_7.jpg 22:32:09 - Image Count 7 22:32:09 - Setting Female English VO Constants | 0 | 0 22:32:09 - ====HVO Value:1, Audio Value:0=== 22:32:09 - Return from CheckProfileVal function::0 - AUDIO_INTRO - 22:32:09 - Return from CheckProfileVal function::0 - AUDIO_OUTRO - 22:32:09 - ================Process HVO=========== 1 22:32:09 - ================CLIENT SELECT TTS VM VALUE=========== 2 22:32:09 - 2 - 2 - /var/app/video_pre_processor/assets/hvo/ 22:32:09 - Setting Female English VO Constants | 0 | 2 22:32:09 - HVO Soap Call Method - AudoListWMIE 22:32:09 - Getting Text For Audio Files 22:32:10 - HVO Soap Call Method - AudoListTWMIE 22:32:10 - Getting Text For Audio Files emotionalFile 8 22:32:10 - HVO Soap Call Method - GetTTScripts 22:32:10 - Getting Text For Audio Files introEmotionalFile 22 22:32:10 - HVO Soap Call Method - GetTTScripts 22:32:10 - Getting Text For Audio Files scriptFile 22 22:32:10 - HVO Soap Call Method - GetTTScripts 22:32:10 - ================TTS VM VALUE=========== 2 22:32:10 - ================GetVOFiles=========== {"OptionFiles":[{"option_str":"* General Options Intro","option_file":"http:\/\/hvo.flickfusion.net\/audio\/options\/options_fe_audio_file_55.mp3","option_saftey":1},{"option_str":"Traction Control","option_file":"http:\/\/hvo.flickfusion.net\/audio\/options\/options_fe_audio_file_18.mp3","option_saftey":2},{"option_str":"Bluetooth","option_file":"http:\/\/hvo.flickfusion.net\/audio\/options\/options_fe_audio_file_846.mp3","option_saftey":1},{"option_str":"Dual Air Bags","option_file":"http:\/\/hvo.flickfusion.net\/audio\/options\/options_fe_audio_file_154.mp3","option_saftey":2},{"option_str":"air conditioning","option_file":"http:\/\/hvo.flickfusion.net\/audio\/options\/options_fe_audio_file_1419.mp3","option_saftey":1},{"option_str":"Backup Camera","option_file":"http:\/\/hvo.flickfusion.net\/audio\/options\/options_fe_audio_file_1393.mp3","option_saftey":1},{"option_str":"Alloy Wheels","option_file":"http:\/\/hvo.flickfusion.net\/audio\/options\/options_fe_audio_file_68.mp3","option_saftey":1},{"option_str":"Alloy Wheels","option_file":"http:\/\/hvo.flickfusion.net\/audio\/options\/options_fe_audio_file_68.mp3","option_saftey":1},{"option_str":"Power Steering","option_file":"http:\/\/hvo.flickfusion.net\/audio\/options\/options_fe_audio_file_244.mp3","option_saftey":1},{"option_str":"4-Wheel Disc Brakes","option_file":"http:\/\/hvo.flickfusion.net\/audio\/options\/options_fe_audio_file_63.mp3","option_saftey":1},{"option_str":"Rear Window Defroster","option_file":"http:\/\/hvo.flickfusion.net\/audio\/options\/options_fe_audio_file_269.mp3","option_saftey":1},{"option_str":"Power Windows","option_file":"http:\/\/hvo.flickfusion.net\/audio\/options\/options_fe_audio_file_2.mp3","option_saftey":1},{"option_str":"Electronic Stability Control","option_file":"http:\/\/hvo.flickfusion.net\/audio\/options\/options_fe_audio_file_162.mp3","option_saftey":1},{"option_str":"SECURITY SYSTEM","option_file":"http:\/\/hvo.flickfusion.net\/audio\/options\/options_fe_audio_file_996.mp3","option_saftey":1},{"option_str":"Trip Computer","option_file":"http:\/\/hvo.flickfusion.net\/audio\/options\/options_fe_audio_file_321.mp3","option_saftey":1},{"option_str":"Panic alarm","option_file":"http:\/\/hvo.flickfusion.net\/audio\/options\/options_fe_audio_file_966.mp3","option_saftey":1},{"option_str":"Overhead console","option_file":"http:\/\/hvo.flickfusion.net\/audio\/options\/options_fe_audio_file_611.mp3","option_saftey":1},{"option_str":"Brake Assist","option_file":"http:\/\/hvo.flickfusion.net\/audio\/options\/options_fe_audio_file_104.mp3","option_saftey":1},{"option_str":"Remote Keyless Entry","option_file":"http:\/\/hvo.flickfusion.net\/audio\/options\/options_fe_audio_file_273.mp3","option_saftey":1},{"option_str":"TACHOMETER","option_file":"http:\/\/hvo.flickfusion.net\/audio\/options\/options_fe_audio_file_299.mp3","option_saftey":1},{"option_str":"Driver Vanity Mirror","option_file":"http:\/\/hvo.flickfusion.net\/audio\/options\/options_fe_audio_file_152.mp3","option_saftey":1},{"option_str":"Rear Window Wiper","option_file":"http:\/\/hvo.flickfusion.net\/audio\/options\/options_fe_audio_file_270.mp3","option_saftey":1},{"option_str":"FRONT BUCKET SEATS","option_file":"http:\/\/hvo.flickfusion.net\/audio\/options\/options_fe_audio_file_168.mp3","option_saftey":1},{"option_str":"Front Reading Lamps","option_file":"http:\/\/hvo.flickfusion.net\/audio\/options\/options_fe_audio_file_178.mp3","option_saftey":1},{"option_str":"TILT STEERING WHEEL","option_file":"http:\/\/hvo.flickfusion.net\/audio\/options\/options_fe_audio_file_300.mp3","option_saftey":1},{"option_str":"Passenger Vanity Mirror","option_file":"http:\/\/hvo.flickfusion.net\/audio\/options\/options_fe_audio_file_233.mp3","option_saftey":1},{"option_str":"Rear Spoiler","option_file":"http:\/\/hvo.flickfusion.net\/audio\/options\/options_fe_audio_file_10.mp3","option_saftey":1},{"option_str":" 4-PIECE FLOOR MAT SET ","option_file":"http:\/\/hvo.flickfusion.net\/audio\/options\/options_fe_audio_file_357.mp3","option_saftey":1},{"option_str":"LOW TIRE PRESSURE WARNING","option_file":"http:\/\/hvo.flickfusion.net\/audio\/options\/options_fe_audio_file_689.mp3","option_saftey":1},{"option_str":"ILLUMINATED ENTRY","option_file":"","option_saftey":1},{"option_str":" 4-PIECE FLOOR MAT SET ","option_file":"http:\/\/hvo.flickfusion.net\/audio\/options\/options_fe_audio_file_357.mp3","option_saftey":1}],"yearFile":"http:\/\/hvo.flickfusion.net\/audio\/year\/year_fe_audio_file_36.mp3","makeFile":"http:\/\/hvo.flickfusion.net\/audio\/makes\/make_name_fe_audio_file_18.mp3","modelFile":"http:\/\/hvo.flickfusion.net\/audio\/mdlnames\/model_name_fe_audio_file_157.mp3","modelHighlightFile":"http:\/\/hvo.flickfusion.net\/audio\/models\/model_fe_audio_file_157.mp3","styleFile":"","bodytypeFile":"","transFile":"","engineFile":"","cylindersFile":"","driveTrainFile":"http:\/\/hvo.flickfusion.net\/audio\/domain_drivetrain\/drivetrain_fe_audio_file_1.mp3","priceFile":"","mileageFile":"http:\/\/hvo.flickfusion.net\/audio\/mileage\/miles_fe_audio_file_15.mp3","carfaxFile":"","emotionalFile":"http:\/\/hvo.flickfusion.net\/audio\/emotional\/emotional_fe_audio_file_8.mp3","introEmotionalFile":"http:\/\/hvo.flickfusion.net\/audio\/emotional\/ie_fe_audio_file_22.mp3","scriptFile":"http:\/\/hvo.flickfusion.net\/audio\/domain_scripts\/script_fe_audio_file_22.mp3","statusCode":"1","statusMessage":"Audio Files Sent"} 22:32:10 - /var/www/html/clients/13447/audio/621D9103-FB7D-3A79-D013-56E69ED0DA0F.wav 22:32:10 - ================Process HVO SOAP CALL CMD=========== /usr/bin/sox STATUS CODE 1 22:32:10 - /var/app/video_pre_processor/assets/hvo/ie_fe_audio_file_22.wav PlayTime:2.69 22:32:10 - /var/app/video_pre_processor/assets/hvo/year_fe_audio_file_36.wav PlayTime:1.8 22:32:10 - /var/app/video_pre_processor/assets/hvo/model_name_fe_audio_file_157.wav PlayTime:0.97 22:32:10 - /var/app/video_pre_processor/assets/hvo/model_fe_audio_file_157.wav PlayTime:4.99 22:32:10 - Skipping VTT for BODY - bodytypeFile 22:32:10 - Skipping VTT for PRICE - priceFile 22:32:10 - KM Check : 61523 | 0 22:32:10 - /var/app/video_pre_processor/assets/hvo/miles_fe_audio_file_15.wav PlayTime:3.37 22:32:10 - Curl Response - {"exterior":["Power Door Mirrors","Abs Brakes","Option Group 01","Headlights, Automatic High Beam Dimmer","Alloy Wheels","Rear Spoiler","Power Mirrors","4-wheel Independent Suspension","Brake Assist","Abs Brakes (rear Only)","Remote Keyless Entry","4-wheel Disc Brakes","Headlights-auto-off","Outside Temperature Gauge","Anti-roll Bars","Auto Headlight On\/off","Body-color Bumpers","Electronic Stability Control","Traction Control","Rear Window Defroster","Rear Window Wiper","Variable Speed Intermittent Wipers"],"interior":["Dual Front Side Impact Airbags","Occupant Sensing Airbag","Illuminated Entry","Split Folding Rear Seat","Speed-sensing Steering","Rear Seat Center Armrest","6 Speakers","Apple Carplay & Android Auto","Back-up Camera","Bluetooth","Audio System, 6 Speakers","Steering Wheel Audio Controls","Security System","Trip Computer","Rear Seats, Split Folding","Rear Seats, Center Armrest","Multi-function Remote, Keyless\/illuminated Entry","Power Windows","Airbags - Passenger - Occupant Sensing Deactivation","Power Steering","Door Pockets","Driver Vanity Mirror","Dual Front Air Bags","Telescopic Steering Wheel","Tilt Steering Wheel","Overhead Console","Panic Alarm","Passenger Vanity Mirror","Center Arm Rest","Tachometer","Front Bucket Seats","Front Reading Lamps","A\/c","Low Tire Pressure Warning","Am\/fm Stereo Radio"]} 22:32:10 - ============={"exterior":["Power Door Mirrors","Abs Brakes","Option Group 01","Headlights, Automatic High Beam Dimmer","Alloy Wheels","Rear Spoiler","Power Mirrors","4-wheel Independent Suspension","Brake Assist","Abs Brakes (rear Only)","Remote Keyless Entry","4-wheel Disc Brakes","Headlights-auto-off","Outside Temperature Gauge","Anti-roll Bars","Auto Headlight On\/off","Body-color Bumpers","Electronic Stability Control","Traction Control","Rear Window Defroster","Rear Window Wiper","Variable Speed Intermittent Wipers"],"interior":["Dual Front Side Impact Airbags","Occupant Sensing Airbag","Illuminated Entry","Split Folding Rear Seat","Speed-sensing Steering","Rear Seat Center Armrest","6 Speakers","Apple Carplay & Android Auto","Back-up Camera","Bluetooth","Audio System, 6 Speakers","Steering Wheel Audio Controls","Security System","Trip Computer","Rear Seats, Split Folding","Rear Seats, Center Armrest","Multi-function Remote, Keyless\/illuminated Entry","Power Windows","Airbags - Passenger - Occupant Sensing Deactivation","Power Steering","Door Pockets","Driver Vanity Mirror","Dual Front Air Bags","Telescopic Steering Wheel","Tilt Steering Wheel","Overhead Console","Panic Alarm","Passenger Vanity Mirror","Center Arm Rest","Tachometer","Front Bucket Seats","Front Reading Lamps","A\/c","Low Tire Pressure Warning","Am\/fm Stereo Radio"]}=============== 22:32:10 - Skipping Duplicate Option Alloy Wheels 22:32:10 - /var/app/video_pre_processor/assets/hvo/options_fe_audio_file_55.wav PlayTime:2.35 22:32:10 - /var/app/video_pre_processor/assets/hvo/options_fe_audio_file_68.wav PlayTime:1.15 22:32:10 - /var/app/video_pre_processor/assets/hvo/options_fe_audio_file_10.wav PlayTime:1.1 22:32:10 - /var/app/video_pre_processor/assets/hvo/options_fe_audio_file_104.wav PlayTime:1.12 22:32:10 - /var/app/video_pre_processor/assets/hvo/options_fe_audio_file_273.wav PlayTime:1.7 22:32:10 - /var/app/video_pre_processor/assets/hvo/options_fe_audio_file_63.wav PlayTime:1.57 22:32:10 - /var/app/video_pre_processor/assets/hvo/options_fe_audio_file_162.wav PlayTime:1.88 22:32:10 - /var/app/video_pre_processor/assets/hvo/options_fe_audio_file_18.wav PlayTime:1.31 22:32:10 - /var/app/video_pre_processor/assets/hvo/options_fe_audio_file_269.wav PlayTime:1.52 22:32:10 - /var/app/video_pre_processor/assets/hvo/options_fe_audio_file_270.wav PlayTime:1.33 22:32:10 - Skipping VTT for OPTIONS - ALL_OPTIONS 22:32:10 - ======= ALL Options ========== null 22:32:10 - /var/www/html/clients/13447/audio/621D9103-FB7D-3A79-D013-56E69ED0DA0F_option.wav 22:32:10 - /usr/bin/sox /var/app/video_pre_processor/assets/hvo/options_fe_audio_file_55.wav /var/app/video_pre_processor/assets/hvo/options_fe_audio_file_68.wav /var/app/video_pre_processor/assets/hvo/options_fe_audio_file_10.wav /var/app/video_pre_processor/assets/hvo/options_fe_audio_file_104.wav /var/app/video_pre_processor/assets/hvo/options_fe_audio_file_273.wav /var/app/video_pre_processor/assets/hvo/options_fe_audio_file_63.wav /var/app/video_pre_processor/assets/hvo/options_fe_audio_file_162.wav /var/app/video_pre_processor/assets/hvo/options_fe_audio_file_18.wav /var/app/video_pre_processor/assets/hvo/options_fe_audio_file_269.wav /var/app/video_pre_processor/assets/hvo/options_fe_audio_file_270.wav /var/www/html/clients/13447/audio/621D9103-FB7D-3A79-D013-56E69ED0DA0F_option.wav 22:32:10 - /var/www/html/clients/13447/audio/621D9103-FB7D-3A79-D013-56E69ED0DA0F_option.wav PlayTime:15.02 22:32:10 - Skipping VTT for CARFAX - carfaxFile 22:32:10 - /var/app/video_pre_processor/assets/hvo/emotional_fe_audio_file_8.wav PlayTime:6.37 22:32:10 - /usr/bin/sox /var/app/video_pre_processor/assets/hvo/ie_fe_audio_file_22.wav /var/app/video_pre_processor/assets/hvo/year_fe_audio_file_36.wav /var/app/video_pre_processor/assets/hvo/model_name_fe_audio_file_157.wav /var/app/video_pre_processor/assets/hvo/model_fe_audio_file_157.wav /var/app/video_pre_processor/assets/hvo/miles_fe_audio_file_15.wav /var/www/html/clients/13447/audio/621D9103-FB7D-3A79-D013-56E69ED0DA0F_option.wav /var/app/video_pre_processor/assets/hvo/emotional_fe_audio_file_8.wav /var/www/html/clients/13447/audio/621D9103-FB7D-3A79-D013-56E69ED0DA0F_temp1.wav 22:32:10 - Return from CheckProfileVal function::0 - REPLACE_FULL_AUDIO - 22:32:10 - Return from CheckProfileVal function::0 - REPLACE_FULL_AUDIO_NEW - 22:32:10 - ========REPALCE AUDIO TRACK LISTING TYPE used \ n USED VALUE : 0 NEW AUDIO VALUE : { 0} ============== 22:32:10 - Video Length for audio merge: 0 22:32:10 - /root/bin/ffmpeg -i /var/www/html/clients/13447/audio/621D9103-FB7D-3A79-D013-56E69ED0DA0F.wav -f mp3 -ar 44100 -ab 320 -ac 2 -y /var/www/html/clients/13447/audio/621D9103-FB7D-3A79-D013-56E69ED0DA0F.mp3 ffmpeg version N-109053-g9b13078c6a Copyright (c) 2000-2022 the FFmpeg developers built with gcc 5.4.0 (GCC) configuration: --prefix=/root/ffmpeg_build --pkg-config-flags=--static --extra-cflags=-I/root/ffmpeg_build/include --extra-ldflags=-L/root/ffmpeg_build/lib --extra-libs=-lpthread --extra-libs=-lm --bindir=/root/bin --enable-gpl --enable-libfdk_aac --enable-libfreetype --enable-libmp3lame --enable-libopus --enable-libvpx --enable-libx264 --enable-openssl --enable-libx265 --enable-nonfree --enable-libvidstab libavutil 57. 42.100 / 57. 42.100 libavcodec 59. 52.101 / 59. 52.101 libavformat 59. 34.101 / 59. 34.101 libavdevice 59. 8.101 / 59. 8.101 libavfilter 8. 50.100 / 8. 50.100 libswscale 6. 8.112 / 6. 8.112 libswresample 4. 9.100 / 4. 9.100 libpostproc 56. 7.100 / 56. 7.100 Guessed Channel Layout for Input Stream #0.0 : stereo Input #0, wav, from '/var/www/html/clients/13447/audio/621D9103-FB7D-3A79-D013-56E69ED0DA0F.wav': Duration: 00:00:35.21, bitrate: 1411 kb/s Stream #0:0: Audio: pcm_s16le ([1][0][0][0] / 0x0001), 44100 Hz, 2 channels, s16, 1411 kb/s Stream mapping: Stream #0:0 -> #0:0 (pcm_s16le (native) -> mp3 (libmp3lame)) Press [q] to stop, [?] for help [libmp3lame @ 0x45dc480] Bitrate 320 is extremely low, maybe you mean 320k The bitrate parameter is set too low. It takes bits/s as argument, not kbits/s Output #0, mp3, to '/var/www/html/clients/13447/audio/621D9103-FB7D-3A79-D013-56E69ED0DA0F.mp3': Metadata: TSSE : Lavf59.34.101 Stream #0:0: Audio: mp3, 44100 Hz, stereo, s16p, 0 kb/s Metadata: encoder : Lavc59.52.101 libmp3lame size= 0kB time=-577014:32:22.77 bitrate= -0.0kbits/s speed=N/A size= 111kB time=00:00:07.05 bitrate= 128.7kbits/s speed=14.1x size= 210kB time=00:00:13.45 bitrate= 128.1kbits/s speed=13.4x size= 256kB time=00:00:19.27 bitrate= 108.8kbits/s speed=12.8x size= 256kB time=00:00:25.52 bitrate= 82.2kbits/s speed=12.7x size= 256kB time=00:00:31.92 bitrate= 65.7kbits/s speed=12.7x size= 551kB time=00:00:35.18 bitrate= 128.2kbits/s speed=12.9x video:0kB audio:551kB subtitle:0kB other streams:0kB global headers:0kB muxing overhead: 0.044872% 22:32:13 - /var/app/video_pre_processor/assets/vidbot/_files/audio/RF3_Easy_Listening.mp3 PlayTime:1517.42 22:32:13 - Using RF3_Easy_Listening.mp3 - /var/app/video_pre_processor/assets/vidbot/_files/audio/RF3_Easy_Listening.mp3 22:32:13 - BG MUSIC FILE /var/app/video_pre_processor/assets/vidbot/_files/audio/RF3_Easy_Listening.mp3 22:32:13 - BG AUDIO CLIENT OVELAY VALUE : 2 22:32:13 - /var/www/html/clients/13447/audio/621D9103-FB7D-3A79-D013-56E69ED0DA0F.wav PlayTime:35.21 22:32:13 - VParent - VOLEN:37.21 | /var/www/html/clients/13447/audio/621D9103-FB7D-3A79-D013-56E69ED0DA0F.mp3 | /var/app/video_pre_processor/assets/vidbot/_files/audio/RF3_Easy_Listening.mp3 | /var/www/html/clients/13447/audio/621D9103-FB7D-3A79-D013-56E69ED0DA0F.wav 22:32:13 - AUDIO PROCESS RETURN VALUE: - 1 22:32:13 - update message_remote_queue set video_process_start = '2024-06-15 22:32:13' where queue_id = 284530 22:32:13 - CLIENT INFO DATA {"client_id":"13447","client_fk":"9253DB2E-EC95-FA85-50C8-B98695028D6B","client_acc_id":"75","client_name":"Mtn. View Hyundai","client_desc":"","client_color":"000000","client_player_color":"","client_textcolor":"","client_tts_text":"","client_tts_options":"","client_inactive":"0","client_createdate":"2020-06-17 14:24:31","client_enddate":"","client_update":"2023-11-01 08:26:52","client_email_forward":"leads@mtnviewhyundai.motosnap.com","client_dealer_id":"MV Hyundai","client_franchise_number":"00013","client_salesperson_name":"Don Erwin","client_address":"7154 Nashville Street","client_city":"Ringgold","client_state":"Georgia","client_zip":"37408","client_phone":"706-935-4500","client_url":"www.mvhyundai.com","client_fb_id":"https:\/\/www.facebook.com\/MtnViewHyundai\/","client_km":"0","client_special_price":"0","client_demo":"0","client_utube_flag":"0","client_cvo":"0","client_tts":"0","client_live_uv":"1","client_live_overlay":"2","client_av":"0","client_gv":"0","client_af":"0","client_video_email":"0","client_carfax":"0","client_intro":"0","client_outro":"0","client_slider":"0","client_music_id":"36","client_ei":"0","client_tts_vm":"2","client_hvo":"1","client_mobile":"0","client_portal":"0","client_instavid":"0","client_new_stock_video":"0","client_vidmagnet":"0","client_auto_play":"0","client_cpo":"1","client_vid_stab":"0","client_vp":"0","client_xl":"0","client_carstory":"1","client_360_player":"0","client_ece":"0","client_capture_video":"0","client_new_cvo":"0","client_pip":"1","client_account_id":"","client_crm_email":"","client_crm_dealer_id":"","client_crm_dealer_key":"","client_archive":"0","client_damage_photo":"0","client_package":"0","client_video_size":"HDLARGE","client_video_style":"RANDOM","client_lat_lng":"","client_comments":"drejrhyundai@gmail.com","THUMB_EXTRACT_TIME":"1","SHOW_CARSTORY":"1"} 22:32:13 - Map Exists: /var/www/html/clients/13447/library/map.jpg 22:32:13 - Checking CUSTOM_INTRO 22:32:13 - Checking CUSTOM_OUTRO 22:32:13 - ================CREATE VIDEO START =========== 22:32:13 - ================VIDEO JSON GEN START ============== 22:32:13 - Video Size 360 22:32:13 - ===========Video Theme font ================Dinot 22:32:13 - ==========Video fk : ==============621D9103-FB7D-3A79-D013-56E69ED0DA0F 22:32:13 - ==============AUDIO VIDEO CONFIG : =========={"BG_MUSIC":"RF3_Easy_Listening","THEME_BG_COLOR":"ffffff","THEME_ACCENTS_COLOR":"047ec1","THEME_FONT_COLOR":"000000","THEME_FONT":"Dinot","THEME_STYLE":"Ren","BG_VOL_LEVEL":"0.10","AUDIO_VO":"VO","VIDEO_SIZE":"VIDEO_LARGE","CUSTOM_INTRO":"","CUSTOM_OUTRO":"","THEME_KEY":"75_13447_Auto_Default_0_ALL","THEME_RANK":"2","THEME_CONFIG":"CLIENT_CONFIG","DISABLE_PRICE":"YES","DISPLAY_PRICE":"NO","OLD_BG_STYLE":"0"} 22:32:13 - CLIENT FKEY : 9253DB2E-EC95-FA85-50C8-B98695028D6B VIDEO FKEY : 621D9103-FB7D-3A79-D013-56E69ED0DA0F VEHICLE FKEY : 22:32:13 - INFO:: Video Type:SS Video Size:360 22:32:13 - Return from CheckProfileVal function::0 - DISPLAY_MILEAGE - NO 22:32:13 - Return from CheckProfileVal function::0 - DISPLAY_MILEAGE - NO 22:32:13 - ==================ClipsGen START ===================== 22:32:13 - Return from CheckProfileVal function::0 - AUDIO_VO - NO_VO 22:32:13 - Return from CheckProfileVal function::0 - AUDIO_VO - NO_VO 22:32:13 - Return from CheckProfileVal function::0 - AUDIO_VO - LIVE_VO 22:32:13 - Return from CheckProfileVal function::0 - AUDIO_VO - LIVE_VO 22:32:13 - Return from CheckProfileVal function::0 - DISPLAY_OPTIONS - NO 22:32:13 - Return from CheckProfileVal function::0 - DISPLAY_OPTIONS - NO 22:32:13 - Return from CheckProfileVal function::0 - DISPLAY_PRICE - NO 22:32:13 - Return from CheckProfileVal function::1 - DISPLAY_PRICE - NO 22:32:13 - Return from CheckProfileVal function::0 - DISPLAY_MILEAGE - NO 22:32:13 - Return from CheckProfileVal function::0 - DISPLAY_MILEAGE - NO 22:32:13 - Return from CheckProfileVal function::0 - DISPLAY_INFO - NO 22:32:13 - Return from CheckProfileVal function::0 - DISPLAY_INFO - NO 22:32:13 - Return from CheckProfileVal function::0 - DISPLAY_TITLE_WSNAME - NO 22:32:13 - Return from CheckProfileVal function::0 - DISPLAY_TITLE_WSNAME - NO 22:32:13 - Return from CheckProfileVal function::0 - DISPLAY_ALL_OVERLAYS - NO 22:32:13 - Return from CheckProfileVal function::0 - DISPLAY_ALL_OVERLAYS - NO 22:32:13 - Return from CheckProfileVal function::0 - DISPLAY_MAP - NO 22:32:13 - Return from CheckProfileVal function::0 - DISPLAY_MAP - NO 22:32:13 - =========THEME STYLE-FONT :Ren - Din ============ 22:32:13 - Fetching CarStory Data - 9253DB2E-EC95-FA85-50C8-B98695028D6B - 4C25B408-2A10-465B-54C5-1B9146F82FAE 22:32:13 - Curl Response - {"badges":[],"Options":[{"":""},{"":""},{"":""},{"":""},{"":""}],"IIHS":{"iihs_name":""},"SAFETY":null} 22:32:13 - CARSTORY APIS : {"badges":[],"Options":[{"":""},{"":""},{"":""},{"":""},{"":""}],"IIHS":{"iihs_name":""},"SAFETY":null} 22:32:13 - Badge Count 0 - 0 22:32:13 - /usr/bin/sox /var/app/video_pre_processor/assets/music/silence_3.wav /var/www/html/clients/13447/audio/621D9103-FB7D-3A79-D013-56E69ED0DA0F.wav /var/www/html/clients/13447/audio/621D9103-FB7D-3A79-D013-56E69ED0DA0F_info_audio.wav 22:32:13 - /var/app/video_pre_processor/assets/vidbot/_files/audio/RF3_Easy_Listening.mp3 PlayTime:1517.42 22:32:13 - /var/app/video_pre_processor/assets/cpo/hyundai/hyundai_360.mp4 PlayTime:19.71 22:32:13 - Return from CheckProfileVal function::0 - BG_MUSIC_OVER_ALL_CLIPS - YES 22:32:13 - Return from CheckProfileVal function::0 - BG_MUSIC_OVER_ALL_CLIPS - YES 22:32:13 - AUDIO TIMER: {"INTRO":0,"YEAR":2.69,"MODEL":4.49,"HIGH":5.46,"MILE":10.45,"ALL_OPTIONS":{"* General Options Intro":13.82,"Alloy Wheels":16.17,"Rear Spoiler":17.32,"Brake Assist":18.42,"Remote Keyless Entry":19.540000000000003,"4-wheel Disc Brakes":21.240000000000002,"Electronic Stability Control":22.810000000000002,"Traction Control":24.69,"Rear Window Defroster":26,"Rear Window Wiper":27.52},"OPTIONS":15.82,"OPTIONS_AUD_LENGTH":15.02,"ENDFILE":28.85} 22:32:13 - ===================ClipsGen END ======================== 22:32:13 - INFO:: VIDEO JSON : "621D9103-FB7D-3A79-D013-56E69ED0DA0F.json" 22:32:13 - node /var/app/Vidbot-V2/dist/vidbot.js --input /var/www/html/clients/13447/video/621D9103-FB7D-3A79-D013-56E69ED0DA0F.json --log debug > /var/www/html/clients/13447/video/621D9103-FB7D-3A79-D013-56E69ED0DA0F.log 22:36:56 - Generated Video File./var/www/html/clients/13447/video/621D9103-FB7D-3A79-D013-56E69ED0DA0F.mp4 22:36:56 - INFO:: Generated Video File./var/www/html/clients/13447/video/621D9103-FB7D-3A79-D013-56E69ED0DA0F.mp4 22:36:56 - INFO:: Sprite & Bookmark Option(s) not enabled 22:36:56 - ================VIDEO JSON GEN END RETURN VALUE : 1 ============== 22:36:56 - ================CREATE VIDEO END =========== ERROR : { 0} 22:36:56 - Start Time:0 22:36:56 - 0##2.69##Make a great choice today with 22:36:56 - 2.69##4.49##The 2019 22:36:56 - 4.49##5.46##Santa Fe 22:36:56 - 5.46##10.45##Style. Quality Performance. Value. Need we say more? 22:36:56 - 10.45##13.82##This Vehicle has less than 65000 miles 22:36:56 - Replacing VTT String * General Options Intro to Here are some of this Vehicle's great options 22:36:56 - 13.82##16.17##Here are some of this Vehicle's great options 22:36:56 - 16.17##17.32##Alloy Wheels 22:36:56 - 17.32##18.42##Rear Spoiler 22:36:56 - 18.42##19.54##Brake Assist 22:36:56 - 19.54##21.24##Remote Keyless Entry 22:36:56 - 21.24##22.81##4-wheel Disc Brakes 22:36:56 - 22.81##24.69##Electronic Stability Control 22:36:56 - 24.69##26##Traction Control 22:36:56 - 26##27.52##Rear Window Defroster 22:36:56 - 27.52##28.85##Rear Window Wiper 22:36:56 - 28.85##35.22##This beauty is sure to make you the talk of the neighborhood so call or drop in for a test drive today! 22:36:56 - 43.21##62.92##Hyundai certified vehicles will provide you the confidence you desire in your next vehicle. All certified Hyundai's come with a limited powertrain warranty a comprehensive inspection roadside assistance and much more. Contact your Hyundai dealer today to learn more about the Hyundai certified program. 22:36:56 - Curl Response - {"code":200,"status":"VTT Updated"} 22:36:56 - Contents - /postVTTString/ - VTT Updated - 200 0##2.69##Make a great choice today with|||2.69##4.49##The 2019|||4.49##5.46##Santa Fe|||5.46##10.45##Style. Quality Performance. Value. Need we say more?|||10.45##13.82##This Vehicle has less than 65000 miles|||13.82##16.17##Here are some of this Vehicle's great options|||16.17##17.32##Alloy Wheels|||17.32##18.42##Rear Spoiler|||18.42##19.54##Brake Assist|||19.54##21.24##Remote Keyless Entry|||21.24##22.81##4-wheel Disc Brakes|||22.81##24.69##Electronic Stability Control|||24.69##26##Traction Control|||26##27.52##Rear Window Defroster|||27.52##28.85##Rear Window Wiper|||28.85##35.22##This beauty is sure to make you the talk of the neighborhood so call or drop in for a test drive today!|||43.21##62.92##Hyundai certified vehicles will provide you the confidence you desire in your next vehicle. All certified Hyundai's come with a limited powertrain warranty a comprehensive inspection roadside assistance and much more. Contact your Hyundai dealer today to learn more about the Hyundai certified program. 22:36:56 - VIDEO JSON GEN RETURN VALUE: - 0 22:36:56 - update message_remote_queue set error=0, video = 1, error_message = concat( "", error_message ), process_start = '2024-06-15 22:32:09', audio_process_start = '2024-06-15 22:32:09', audio_process_end = '2024-06-15 22:32:13', video_process_start ='2024-06-15 22:32:13', video_process_end='2024-06-15 22:36:56' where queue_id = 284530 22:36:56 - ==91 - 1 Elapsed Time 287.29 == 22:36:56 - update queue_status set stat_last_update=NOW(), type_cnt = 91, type_loop_cnt = 1602 where type_val = 'V3' 22:36:56 - Curl Response - {"code":200,"status":"Success:PostServerProcessDetails Posted For IP [209.59.156.167] and Process [V3]"} 22:36:56 - Contents - /postServerProcessDetails/ - Success:PostServerProcessDetails Posted For IP [209.59.156.167] and Process [V3] - 200 22:36:56 - update queue_status set stat_last_update=NOW(), type_cnt = 91, type_loop_cnt = 1602 where type_val = 'V3' 22:36:57 - Curl Response - {"code":200,"status":"Success:PostServerProcessDetails Posted For IP [209.59.156.167] and Process [V3]"} 22:36:57 - Contents - /postServerProcessDetails/ - Success:PostServerProcessDetails Posted For IP [209.59.156.167] and Process [V3] - 200 22:36:57 - ========== 91 - 598 mins 394.52791208791 Video Process / Start:2024-06-15 06:14:02 / Mod:2/16====== 22:36:58 - Fetching Video Jobs Mod Val : 2 Mod Limit : 16 Queue ID : 0 22:36:58 - ========select * from message_remote_queue, hvo_data where queue_id%16 = 2 and image = 1 and video = 0 and error = 0 and hvo_queue_id = queue_id order by high_priority_row desc, queue_id asc limit 1==================count =1 22:36:58 - Processing Auto VideoFKEY:C9B6B973-D604-D4C1-8681-FA7AB19C9847 - QueueID:284546 22:36:58 - CLIENT INFO CLIENT_FK : 9253DB2E-EC95-FA85-50C8-B98695028D6B ,CLIENT_INFO :{"client_id":"13447","client_fk":"9253DB2E-EC95-FA85-50C8-B98695028D6B","client_acc_id":"75","client_name":"Mtn. View Hyundai","client_desc":"","client_color":"000000","client_player_color":"","client_textcolor":"","client_tts_text":"","client_tts_options":"","client_inactive":"0","client_createdate":"2020-06-17 14:24:31","client_enddate":"","client_update":"2023-11-01 08:26:52","client_email_forward":"leads@mtnviewhyundai.motosnap.com","client_dealer_id":"MV Hyundai","client_franchise_number":"00013","client_salesperson_name":"Don Erwin","client_address":"7154 Nashville Street","client_city":"Ringgold","client_state":"Georgia","client_zip":"37408","client_phone":"706-935-4500","client_url":"www.mvhyundai.com","client_fb_id":"https://www.facebook.com/MtnViewHyundai/","client_km":"0","client_special_price":"0","client_demo":"0","client_utube_flag":"0","client_cvo":"0","client_tts":"0","client_live_uv":"1","client_live_overlay":"2","client_av":"0","client_gv":"0","client_af":"0","client_video_email":"0","client_carfax":"0","client_intro":"0","client_outro":"0","client_slider":"0","client_music_id":"36","client_ei":"0","client_tts_vm":"2","client_hvo":"1","client_mobile":"0","client_portal":"0","client_instavid":"0","client_new_stock_video":"0","client_vidmagnet":"0","client_auto_play":"0","client_cpo":"1","client_vid_stab":"0","client_vp":"0","client_xl":"0","client_carstory":"1","client_360_player":"0","client_ece":"0","client_capture_video":"0","client_new_cvo":"0","client_pip":"1","client_account_id":"","client_crm_email":"","client_crm_dealer_id":"","client_crm_dealer_key":"","client_archive":"0","client_damage_photo":"0","client_package":"0","client_video_size":"HDLARGE","client_video_style":"RANDOM","client_lat_lng":"","client_comments":"drejrhyundai@gmail.com","THUMB_EXTRACT_TIME":"1","SHOW_CARSTORY":"1"} 22:36:58 - Rest Call: /client/videoDetails/9253DB2E-EC95-FA85-50C8-B98695028D6B?video_key=C9B6B973-D604-D4C1-8681-FA7AB19C9847 22:36:58 - Curl Response - {"video_id":"49321968","video_fk":"C9B6B973-D604-D4C1-8681-FA7AB19C9847","vehicle_id":"43452411","video_client_id":"13447","video_script":"Clean CARFAX. Recent Arrival! 10YR \/ 100K CPO WARRANTY, Apple CarPlay \/ Android Auto, Bluetooth, Lane Keeping Assist, Rear Cross Traffic Collision Assist, Forward Collision Assist, BACKUP CAMERA, BLIND SPOT MONITOR, Blue Link Connected Serives 3-years, NAVIGATION SYSTEM, Recent Oil Change, Remainder of Factory Warranty, Service Records Available, 12.3 LCD Cluster, Convenience Package, Heated Front Seats, Hyundai Digital Key 2 Touch, Option Group 02, Paddle Shifters, Power Windows w\/Front Auto-Down\/Up, Wi-Fi Hotspot, Wireless Device Charging.
Hyundai Certified Pre-Owned Details:

* 173+ Point Inspection
* Warranty Deductible: $50
* Limited Warranty: 60 Month\/60,000 Mile (whichever comes first) from original in-service date
* Includes 10-year\/Unlimited mileage Roadside Assistance with Rental Car and Trip Interruption Reimbursement; Please see dealers for specific vehicle eligibility requirements. 10-Year\/100,000 Mile Hybrid\/EV Battery Warranty. 3 months SiriusXM trial subscription
* Powertrain Limited Warranty: 120 Month\/100,000 Mile (whichever comes first) from original in-service date
* Vehicle History
* Roadside Assistance

Certified.


** MAY REQUIRE FINANCING THROUGH DEALER FOR INTERNET PRICE ** 2024 Hyundai Kona SEL","video_tts_script":"","video_flv":"\/avavids\/1\/clients\/13447\/video\/C9B6B973-D604-D4C1-8681-FA7AB19C9847.mp4","video_create_time":"2024-06-14 22:15:58","video_update_time":"2024-06-15 22:15:54","audio_length":"0","video_options":"Option Group 02,Convenience Package,6 Speakers,AM\/FM radio: SiriusXM,Air Conditioning,Automatic temperature control,Front dual zone A\/C,Rear window defroster,Power driver seat,Power steering,Power windows,Power Windows w\/Front Auto-Down\/Up,Remote keyless entry,Steering wheel mounted audio controls,Speed-sensing steering,Traction control,4-Wheel Disc Brakes,ABS brakes,Dual front impact airbags,Dual front side impact airbags,Emergency communication system: Bluelink+,Front anti-roll bar,Front wheel independent suspension,Hyundai Digital Key 2 Touch,Low tire pressure warning,Occupant sensing airbag,Overhead airbag,Brake assist,Electronic Stability Control,Exterior Parking Camera Rear,Auto High-beam Headlights,Delay-off headlights,Fully automatic headlights,First Aid Kit,Panic alarm,Security system,Smart Cruise Control with Stop & Go,Bumpers: body-color,Column-Mounted Shift-By-Wire,Heated door mirrors,Power door mirrors,Roof rack: rails only,Spoiler,Turn signal indicator mirrors,Wi-Fi Hotspot,12.3 LCD Cluster,Apple CarPlay & Android Auto,Auto-Dimming Rear-View Mirror,Cargo Tray,Carpeted Floor Mats,Cloth Seat Trim,Driver door bin,Driver vanity mirror,FCA w\/Junction Turning Direct Oncoming,Front reading lights,Illuminated entry,Leather Shift Knob,Leather steering wheel,LED Interior Lighting,Outside temperature display,Paddle Shifters,Passenger vanity mirror,Rear seat center armrest,Tachometer,Telescoping steering wheel,Tilt steering wheel,Trip computer,Wireless Device Charging,Front Bucket Seats,Front Center Armrest,Heated Front Seats,Split folding rear seat,Cargo Net,Passenger door bin,Alloy wheels,Wheel Locks,Rear window wiper,Variably intermittent wipers,6.052 Axle Ratio,10YR \/ 100K CPO WARRANTY,Apple CarPlay \/ Android Auto,Bluetooth,Lane Keeping Assist,Rear Cross Traffic Collision Assist,Forward Collision Assist,BACKUP CAMERA,BLIND SPOT MONITOR,Blue Link Connected Serives 3-years,NAVIGATION SYSTEM,Recent Oil Change,Remainder of Factory Warranty,Service Records Available","video_custom_flag":"0","video_title":"2024 Hyundai Kona","video_local_title":"2024 Hyundai Kona","video_frames":"0","video_image_url":"\/avavids\/1\/clients\/13447\/images\/C9B6B973-D604-D4C1-8681-FA7AB19C9847_","video_pin_id":"0","video_tts_flag":"1","video_hvo_flag":"0","video_share":"1","video_default_flag":"1","video_imgsrc_urls":"http:\/\/vehicle-photos-published.vauto.com\/57\/dd\/fd\/6a-166d-4ed5-8fe8-4a67c454749b\/image-1.jpg,http:\/\/vehicle-photos-published.vauto.com\/57\/dd\/fd\/6a-166d-4ed5-8fe8-4a67c454749b\/image-2.jpg,http:\/\/vehicle-photos-published.vauto.com\/57\/dd\/fd\/6a-166d-4ed5-8fe8-4a67c454749b\/image-3.jpg,http:\/\/vehicle-photos-published.vauto.com\/57\/dd\/fd\/6a-166d-4ed5-8fe8-4a67c454749b\/image-4.jpg,http:\/\/vehicle-photos-published.vauto.com\/57\/dd\/fd\/6a-166d-4ed5-8fe8-4a67c454749b\/image-5.jpg,http:\/\/vehicle-photos-published.vauto.com\/57\/dd\/fd\/6a-166d-4ed5-8fe8-4a67c454749b\/image-6.jpg,http:\/\/vehicle-photos-published.vauto.com\/57\/dd\/fd\/6a-166d-4ed5-8fe8-4a67c454749b\/image-7.jpg,http:\/\/vehicle-photos-published.vauto.com\/57\/dd\/fd\/6a-166d-4ed5-8fe8-4a67c454749b\/image-8.jpg,http:\/\/vehicle-photos-published.vauto.com\/57\/dd\/fd\/6a-166d-4ed5-8fe8-4a67c454749b\/image-9.jpg,http:\/\/vehicle-photos-published.vauto.com\/57\/dd\/fd\/6a-166d-4ed5-8fe8-4a67c454749b\/image-10.jpg,http:\/\/vehicle-photos-published.vauto.com\/57\/dd\/fd\/6a-166d-4ed5-8fe8-4a67c454749b\/image-11.jpg,http:\/\/vehicle-photos-published.vauto.com\/57\/dd\/fd\/6a-166d-4ed5-8fe8-4a67c454749b\/image-12.jpg,http:\/\/vehicle-photos-published.vauto.com\/57\/dd\/fd\/6a-166d-4ed5-8fe8-4a67c454749b\/image-13.jpg,http:\/\/vehicle-photos-published.vauto.com\/57\/dd\/fd\/6a-166d-4ed5-8fe8-4a67c454749b\/image-14.jpg,http:\/\/vehicle-photos-published.vauto.com\/57\/dd\/fd\/6a-166d-4ed5-8fe8-4a67c454749b\/image-15.jpg,http:\/\/vehicle-photos-published.vauto.com\/57\/dd\/fd\/6a-166d-4ed5-8fe8-4a67c454749b\/image-16.jpg,http:\/\/vehicle-photos-published.vauto.com\/57\/dd\/fd\/6a-166d-4ed5-8fe8-4a67c454749b\/image-17.jpg,http:\/\/vehicle-photos-published.vauto.com\/57\/dd\/fd\/6a-166d-4ed5-8fe8-4a67c454749b\/image-18.jpg,http:\/\/vehicle-photos-published.vauto.com\/57\/dd\/fd\/6a-166d-4ed5-8fe8-4a67c454749b\/image-19.jpg,http:\/\/vehicle-photos-published.vauto.com\/57\/dd\/fd\/6a-166d-4ed5-8fe8-4a67c454749b\/image-20.jpg,http:\/\/vehicle-photos-published.vauto.com\/57\/dd\/fd\/6a-166d-4ed5-8fe8-4a67c454749b\/image-21.jpg,http:\/\/vehicle-photos-published.vauto.com\/57\/dd\/fd\/6a-166d-4ed5-8fe8-4a67c454749b\/image-22.jpg,http:\/\/vehicle-photos-published.vauto.com\/57\/dd\/fd\/6a-166d-4ed5-8fe8-4a67c454749b\/image-23.jpg,http:\/\/vehicle-photos-published.vauto.com\/57\/dd\/fd\/6a-166d-4ed5-8fe8-4a67c454749b\/image-24.jpg","video_thumbnail_url":"","video_rendering_flag":"1","video_error_rendering":"","video_view_cnt":"0","video_delete_flag":"0","video_delete_time":"","video_batch_proc":"1","video_meta_data":"","video_custom_default":"0","video_external_flv":"https:\/\/gcsimages.s3.us-west-001.backblazeb2.com\/clients\/13447\/video\/C9B6B973-D604-D4C1-8681-FA7AB19C9847.mp4","video_external_wflv":"","video_external_iflv":"","video_custom_uploaded":"0","vehicle_client_id":"13447","vehicle_fkey":"2E89BDC2-997A-B229-B117-A8EB40B87FAE","vehicle_uid":"KM8HC3AB8RU039223_24083","vehicle_vin":"KM8HC3AB8RU039223","vehicle_stock":"24083","vehicle_year":"2024","vehicle_make":"Hyundai","vehicle_model":"Kona","vehicle_trim":"SEL","vehicle_price":"27507","vehicle_mileage":"4529","vehicle_int_color":"Black","vehicle_ext_color":"Abyss Black Pearl","vehicle_body_type":"SUV","vehicle_listing_type":"Used","vehicle_citympg":"","vehicle_hwympg":"","vehicle_combmpg":"","vehicle_cylinders":"0","vehicle_engine_size":"2.0L I4 DO","vehicle_trans":"IVT","vehicle_drivetrain":"FWD","vehicle_passengers":"0","vehicle_doors":"0","vehicle_certified":"1","vehicle_special":"0","vehicle_options":"Option Group 02,Convenience Package,6 Speakers,AM\/FM radio: SiriusXM,Air Conditioning,Automatic temperature control,Front dual zone A\/C,Rear window defroster,Power driver seat,Power steering,Power windows,Power Windows w\/Front Auto-Down\/Up,Remote keyless entry,Steering wheel mounted audio controls,Speed-sensing steering,Traction control,4-Wheel Disc Brakes,ABS brakes,Dual front impact airbags,Dual front side impact airbags,Emergency communication system: Bluelink+,Front anti-roll bar,Front wheel independent suspension,Hyundai Digital Key 2 Touch,Low tire pressure warning,Occupant sensing airbag,Overhead airbag,Brake assist,Electronic Stability Control,Exterior Parking Camera Rear,Auto High-beam Headlights,Delay-off headlights,Fully automatic headlights,First Aid Kit,Panic alarm,Security system,Smart Cruise Control with Stop & Go,Bumpers: body-color,Column-Mounted Shift-By-Wire,Heated door mirrors,Power door mirrors,Roof rack: rails only,Spoiler,Turn signal indicator mirrors,Wi-Fi Hotspot,12.3 LCD Cluster,Apple CarPlay & Android Auto,Auto-Dimming Rear-View Mirror,Cargo Tray,Carpeted Floor Mats,Cloth Seat Trim,Driver door bin,Driver vanity mirror,FCA w\/Junction Turning Direct Oncoming,Front reading lights,Illuminated entry,Leather Shift Knob,Leather steering wheel,LED Interior Lighting,Outside temperature display,Paddle Shifters,Passenger vanity mirror,Rear seat center armrest,Tachometer,Telescoping steering wheel,Tilt steering wheel,Trip computer,Wireless Device Charging,Front Bucket Seats,Front Center Armrest,Heated Front Seats,Split folding rear seat,Cargo Net,Passenger door bin,Alloy wheels,Wheel Locks,Rear window wiper,Variably intermittent wipers,6.052 Axle Ratio,10YR \/ 100K CPO WARRANTY,Apple CarPlay \/ Android Auto,Bluetooth,Lane Keeping Assist,Rear Cross Traffic Collision Assist,Forward Collision Assist,BACKUP CAMERA,BLIND SPOT MONITOR,Blue Link Connected Serives 3-years,NAVIGATION SYSTEM,Recent Oil Change,Remainder of Factory Warranty,Service Records Available","vehicle_desc":"Clean CARFAX. Recent Arrival! 10YR \/ 100K CPO WARRANTY, Apple CarPlay \/ Android Auto, Bluetooth, Lane Keeping Assist, Rear Cross Traffic Collision Assist, Forward Collision Assist, BACKUP CAMERA, BLIND SPOT MONITOR, Blue Link Connected Serives 3-years, NAVIGATION SYSTEM, Recent Oil Change, Remainder of Factory Warranty, Service Records Available, 12.3 LCD Cluster, Convenience Package, Heated Front Seats, Hyundai Digital Key 2 Touch, Option Group 02, Paddle Shifters, Power Windows w\/Front Auto-Down\/Up, Wi-Fi Hotspot, Wireless Device Charging.
Hyundai Certified Pre-Owned Details:

* 173+ Point Inspection
* Warranty Deductible: $50
* Limited Warranty: 60 Month\/60,000 Mile (whichever comes first) from original in-service date
* Includes 10-year\/Unlimited mileage Roadside Assistance with Rental Car and Trip Interruption Reimbursement; Please see dealers for specific vehicle eligibility requirements. 10-Year\/100,000 Mile Hybrid\/EV Battery Warranty. 3 months SiriusXM trial subscription
* Powertrain Limited Warranty: 120 Month\/100,000 Mile (whichever comes first) from original in-service date
* Vehicle History
* Roadside Assistance

Certified.


** MAY REQUIRE FINANCING THROUGH DEALER FOR INTERNET PRICE ** 2024 Hyundai Kona SEL","vehicle_chrome_style_id":"","vehicle_model_num":"","vehicle_stock_video":"0","vehicle_img_cnt":"0","veh_more_info":"","vehicle_create_date":"2024-06-14 22:15:58","vehicle_update_date":"2024-06-15 22:15:47","vehicle_md5":"d2242f4a6b063705ef6c79173f60bee5","vehicle_status":"U","vehicle_add":"0","vehicle_delete_flag":"0","vehicle_delete_time":""} 22:36:58 - Rest Call: /client/getAudioVideoConfig/9253DB2E-EC95-FA85-50C8-B98695028D6B?listing_type=Used&video_type=Auto&certified=1&vehicle_make=Hyundai 22:36:58 - Curl Response - {"BG_MUSIC":"RF3_Easy_Listening","THEME_BG_COLOR":"ffffff","THEME_ACCENTS_COLOR":"047ec1","THEME_FONT_COLOR":"000000","THEME_FONT":"Din","THEME_STYLE":"Ren","BG_VOL_LEVEL":"0.10","AUDIO_VO":"VO","VIDEO_SIZE":"VIDEO_LARGE","CUSTOM_INTRO":"","CUSTOM_OUTRO":"","THEME_KEY":"75_13447_Auto_Default_0_ALL","THEME_RANK":"2","THEME_CONFIG":"CLIENT_CONFIG","DISABLE_PRICE":"YES","DISPLAY_PRICE":"NO","OLD_BG_STYLE":"0"} 22:36:58 - Return from CheckProfileVal function::1 - DISABLE_PRICE - YES 22:36:58 - Return from CheckProfileVal function::0 - DISABLE_MILEAGE - YES 22:36:58 - Return from CheckProfileVal function::0 - DISABLE_CARSTORY - YES 22:36:58 - Config Information for C9B6B973-D604-D4C1-8681-FA7AB19C9847 - Width:640 - CPO:1/1 - CF:0 - CS:1 - Intro:0 - Outro:0 - Ovleray:2 -THEME:75_13447_Auto_Default_0_ALL 22:36:58 - http://vehicle-photos-published.vauto.com/57/dd/fd/6a-166d-4ed5-8fe8-4a67c454749b/image-1.jpg /var/www/html/clients/13447/images/C9B6B973-D604-D4C1-8681-FA7AB19C9847_1.jpg 22:36:58 - http://vehicle-photos-published.vauto.com/57/dd/fd/6a-166d-4ed5-8fe8-4a67c454749b/image-2.jpg /var/www/html/clients/13447/images/C9B6B973-D604-D4C1-8681-FA7AB19C9847_2.jpg 22:36:58 - http://vehicle-photos-published.vauto.com/57/dd/fd/6a-166d-4ed5-8fe8-4a67c454749b/image-3.jpg /var/www/html/clients/13447/images/C9B6B973-D604-D4C1-8681-FA7AB19C9847_3.jpg 22:36:58 - http://vehicle-photos-published.vauto.com/57/dd/fd/6a-166d-4ed5-8fe8-4a67c454749b/image-4.jpg /var/www/html/clients/13447/images/C9B6B973-D604-D4C1-8681-FA7AB19C9847_4.jpg 22:36:58 - http://vehicle-photos-published.vauto.com/57/dd/fd/6a-166d-4ed5-8fe8-4a67c454749b/image-5.jpg /var/www/html/clients/13447/images/C9B6B973-D604-D4C1-8681-FA7AB19C9847_5.jpg 22:36:58 - http://vehicle-photos-published.vauto.com/57/dd/fd/6a-166d-4ed5-8fe8-4a67c454749b/image-6.jpg /var/www/html/clients/13447/images/C9B6B973-D604-D4C1-8681-FA7AB19C9847_6.jpg 22:36:58 - http://vehicle-photos-published.vauto.com/57/dd/fd/6a-166d-4ed5-8fe8-4a67c454749b/image-7.jpg /var/www/html/clients/13447/images/C9B6B973-D604-D4C1-8681-FA7AB19C9847_7.jpg 22:36:58 - http://vehicle-photos-published.vauto.com/57/dd/fd/6a-166d-4ed5-8fe8-4a67c454749b/image-8.jpg /var/www/html/clients/13447/images/C9B6B973-D604-D4C1-8681-FA7AB19C9847_8.jpg 22:36:58 - http://vehicle-photos-published.vauto.com/57/dd/fd/6a-166d-4ed5-8fe8-4a67c454749b/image-9.jpg /var/www/html/clients/13447/images/C9B6B973-D604-D4C1-8681-FA7AB19C9847_9.jpg 22:36:58 - http://vehicle-photos-published.vauto.com/57/dd/fd/6a-166d-4ed5-8fe8-4a67c454749b/image-10.jpg /var/www/html/clients/13447/images/C9B6B973-D604-D4C1-8681-FA7AB19C9847_10.jpg 22:36:58 - http://vehicle-photos-published.vauto.com/57/dd/fd/6a-166d-4ed5-8fe8-4a67c454749b/image-11.jpg /var/www/html/clients/13447/images/C9B6B973-D604-D4C1-8681-FA7AB19C9847_11.jpg 22:36:58 - http://vehicle-photos-published.vauto.com/57/dd/fd/6a-166d-4ed5-8fe8-4a67c454749b/image-12.jpg /var/www/html/clients/13447/images/C9B6B973-D604-D4C1-8681-FA7AB19C9847_12.jpg 22:36:58 - http://vehicle-photos-published.vauto.com/57/dd/fd/6a-166d-4ed5-8fe8-4a67c454749b/image-13.jpg /var/www/html/clients/13447/images/C9B6B973-D604-D4C1-8681-FA7AB19C9847_13.jpg 22:36:58 - http://vehicle-photos-published.vauto.com/57/dd/fd/6a-166d-4ed5-8fe8-4a67c454749b/image-14.jpg /var/www/html/clients/13447/images/C9B6B973-D604-D4C1-8681-FA7AB19C9847_14.jpg 22:36:58 - http://vehicle-photos-published.vauto.com/57/dd/fd/6a-166d-4ed5-8fe8-4a67c454749b/image-15.jpg /var/www/html/clients/13447/images/C9B6B973-D604-D4C1-8681-FA7AB19C9847_15.jpg 22:36:58 - http://vehicle-photos-published.vauto.com/57/dd/fd/6a-166d-4ed5-8fe8-4a67c454749b/image-16.jpg /var/www/html/clients/13447/images/C9B6B973-D604-D4C1-8681-FA7AB19C9847_16.jpg 22:36:58 - http://vehicle-photos-published.vauto.com/57/dd/fd/6a-166d-4ed5-8fe8-4a67c454749b/image-17.jpg /var/www/html/clients/13447/images/C9B6B973-D604-D4C1-8681-FA7AB19C9847_17.jpg 22:36:58 - http://vehicle-photos-published.vauto.com/57/dd/fd/6a-166d-4ed5-8fe8-4a67c454749b/image-18.jpg /var/www/html/clients/13447/images/C9B6B973-D604-D4C1-8681-FA7AB19C9847_18.jpg 22:36:58 - http://vehicle-photos-published.vauto.com/57/dd/fd/6a-166d-4ed5-8fe8-4a67c454749b/image-19.jpg /var/www/html/clients/13447/images/C9B6B973-D604-D4C1-8681-FA7AB19C9847_19.jpg 22:36:58 - http://vehicle-photos-published.vauto.com/57/dd/fd/6a-166d-4ed5-8fe8-4a67c454749b/image-20.jpg /var/www/html/clients/13447/images/C9B6B973-D604-D4C1-8681-FA7AB19C9847_20.jpg 22:36:58 - Image Count 20 22:36:58 - Setting Female English VO Constants | 0 | 0 22:36:58 - ====HVO Value:1, Audio Value:0=== 22:36:58 - Return from CheckProfileVal function::0 - AUDIO_INTRO - 22:36:58 - Return from CheckProfileVal function::0 - AUDIO_OUTRO - 22:36:58 - ================Process HVO=========== 1 22:36:58 - ================CLIENT SELECT TTS VM VALUE=========== 2 22:36:58 - 2 - 2 - /var/app/video_pre_processor/assets/hvo/ 22:36:58 - Setting Female English VO Constants | 0 | 2 22:36:58 - HVO Soap Call Method - AudoListWMIE 22:36:58 - Getting Text For Audio Files 22:36:58 - HVO Soap Call Method - AudoListTWMIE 22:36:58 - Getting Text For Audio Files emotionalFile 9 22:36:58 - HVO Soap Call Method - GetTTScripts 22:36:58 - Getting Text For Audio Files introEmotionalFile 25 22:36:58 - HVO Soap Call Method - GetTTScripts 22:36:58 - Getting Text For Audio Files scriptFile 21 22:36:58 - HVO Soap Call Method - GetTTScripts 22:36:58 - ================TTS VM VALUE=========== 2 22:36:58 - ================GetVOFiles=========== {"OptionFiles":[{"option_str":"* General Options Intro","option_file":"http:\/\/hvo.flickfusion.net\/audio\/options\/options_fe_audio_file_55.mp3","option_saftey":1},{"option_str":"Navigation System","option_file":"http:\/\/hvo.flickfusion.net\/audio\/options\/options_fe_audio_file_219.mp3","option_saftey":1},{"option_str":"Traction Control","option_file":"http:\/\/hvo.flickfusion.net\/audio\/options\/options_fe_audio_file_18.mp3","option_saftey":2},{"option_str":"air conditioning","option_file":"http:\/\/hvo.flickfusion.net\/audio\/options\/options_fe_audio_file_1419.mp3","option_saftey":1},{"option_str":"Bluetooth","option_file":"http:\/\/hvo.flickfusion.net\/audio\/options\/options_fe_audio_file_846.mp3","option_saftey":1},{"option_str":"Dual Air Bags","option_file":"http:\/\/hvo.flickfusion.net\/audio\/options\/options_fe_audio_file_154.mp3","option_saftey":2},{"option_str":"Leather Wrapped Steering Wheel","option_file":"http:\/\/hvo.flickfusion.net\/audio\/options\/options_fe_audio_file_207.mp3","option_saftey":1},{"option_str":"Backup Camera","option_file":"http:\/\/hvo.flickfusion.net\/audio\/options\/options_fe_audio_file_1393.mp3","option_saftey":1},{"option_str":"Alloy Wheels","option_file":"http:\/\/hvo.flickfusion.net\/audio\/options\/options_fe_audio_file_68.mp3","option_saftey":1},{"option_str":"Power Steering","option_file":"http:\/\/hvo.flickfusion.net\/audio\/options\/options_fe_audio_file_244.mp3","option_saftey":1},{"option_str":"Lane Keeping Assist","option_file":"","option_saftey":1},{"option_str":"4-Wheel Disc Brakes","option_file":"http:\/\/hvo.flickfusion.net\/audio\/options\/options_fe_audio_file_63.mp3","option_saftey":1},{"option_str":"Electronic Stability Control","option_file":"http:\/\/hvo.flickfusion.net\/audio\/options\/options_fe_audio_file_162.mp3","option_saftey":1},{"option_str":"Power Windows","option_file":"http:\/\/hvo.flickfusion.net\/audio\/options\/options_fe_audio_file_2.mp3","option_saftey":1},{"option_str":"Trip Computer","option_file":"http:\/\/hvo.flickfusion.net\/audio\/options\/options_fe_audio_file_321.mp3","option_saftey":1},{"option_str":"Heated Front Seats","option_file":"http:\/\/hvo.flickfusion.net\/audio\/options\/options_fe_audio_file_193.mp3","option_saftey":1},{"option_str":"Rear Window Defroster","option_file":"http:\/\/hvo.flickfusion.net\/audio\/options\/options_fe_audio_file_269.mp3","option_saftey":1},{"option_str":"SECURITY SYSTEM","option_file":"http:\/\/hvo.flickfusion.net\/audio\/options\/options_fe_audio_file_996.mp3","option_saftey":1},{"option_str":"Remote Keyless Entry","option_file":"http:\/\/hvo.flickfusion.net\/audio\/options\/options_fe_audio_file_273.mp3","option_saftey":1},{"option_str":"CARPETED FLOOR MATS ","option_file":"http:\/\/hvo.flickfusion.net\/audio\/options\/options_fe_audio_file_361.mp3","option_saftey":1},{"option_str":"Cargo Net","option_file":"http:\/\/hvo.flickfusion.net\/audio\/options\/options_fe_audio_file_116.mp3","option_saftey":1},{"option_str":"Brake Assist","option_file":"http:\/\/hvo.flickfusion.net\/audio\/options\/options_fe_audio_file_104.mp3","option_saftey":1},{"option_str":"Panic alarm","option_file":"http:\/\/hvo.flickfusion.net\/audio\/options\/options_fe_audio_file_966.mp3","option_saftey":1},{"option_str":"TACHOMETER","option_file":"http:\/\/hvo.flickfusion.net\/audio\/options\/options_fe_audio_file_299.mp3","option_saftey":1},{"option_str":"Power Driver Seat","option_file":"http:\/\/hvo.flickfusion.net\/audio\/options\/options_fe_audio_file_237.mp3","option_saftey":1},{"option_str":"Cloth Seat Trim","option_file":"http:\/\/hvo.flickfusion.net\/audio\/options\/options_fe_audio_file_113.mp3","option_saftey":1},{"option_str":"CONVENIENCE PKG ","option_file":"http:\/\/hvo.flickfusion.net\/audio\/options\/options_fe_audio_file_776.mp3","option_saftey":1},{"option_str":"Driver Vanity Mirror","option_file":"http:\/\/hvo.flickfusion.net\/audio\/options\/options_fe_audio_file_152.mp3","option_saftey":1},{"option_str":"Front Reading Lamps","option_file":"http:\/\/hvo.flickfusion.net\/audio\/options\/options_fe_audio_file_178.mp3","option_saftey":1},{"option_str":"Rear Window Wiper","option_file":"http:\/\/hvo.flickfusion.net\/audio\/options\/options_fe_audio_file_270.mp3","option_saftey":1},{"option_str":"FRONT BUCKET SEATS","option_file":"http:\/\/hvo.flickfusion.net\/audio\/options\/options_fe_audio_file_168.mp3","option_saftey":1},{"option_str":"TILT STEERING WHEEL","option_file":"http:\/\/hvo.flickfusion.net\/audio\/options\/options_fe_audio_file_300.mp3","option_saftey":1},{"option_str":"Wheel Locks","option_file":"http:\/\/hvo.flickfusion.net\/audio\/options\/options_fe_audio_file_343.mp3","option_saftey":1},{"option_str":"Passenger Vanity Mirror","option_file":"http:\/\/hvo.flickfusion.net\/audio\/options\/options_fe_audio_file_233.mp3","option_saftey":1},{"option_str":"Rear Spoiler","option_file":"http:\/\/hvo.flickfusion.net\/audio\/options\/options_fe_audio_file_10.mp3","option_saftey":1},{"option_str":"Blind Spot Monitor","option_file":"http:\/\/hvo.flickfusion.net\/audio\/options\/options_fe_audio_file_1428.mp3","option_saftey":1},{"option_str":"CARGO TRAY","option_file":"http:\/\/hvo.flickfusion.net\/audio\/options\/options_fe_audio_file_684.mp3","option_saftey":1},{"option_str":"LEATHER SHIFT KNOB","option_file":"http:\/\/hvo.flickfusion.net\/audio\/options\/options_fe_audio_file_688.mp3","option_saftey":1},{"option_str":"ILLUMINATED ENTRY","option_file":"","option_saftey":1},{"option_str":" 4-PIECE FLOOR MAT SET ","option_file":"http:\/\/hvo.flickfusion.net\/audio\/options\/options_fe_audio_file_357.mp3","option_saftey":1},{"option_str":"FRONT WHEEL INDEPENDENT SUSPENSION","option_file":"http:\/\/hvo.flickfusion.net\/audio\/options\/options_fe_audio_file_671.mp3","option_saftey":1},{"option_str":"LOW TIRE PRESSURE WARNING","option_file":"http:\/\/hvo.flickfusion.net\/audio\/options\/options_fe_audio_file_689.mp3","option_saftey":1},{"option_str":"First Aid Kit","option_file":"http:\/\/hvo.flickfusion.net\/audio\/options\/options_fe_audio_file_1999.mp3","option_saftey":1},{"option_str":"PADDLE SHIFTERS","option_file":"http:\/\/hvo.flickfusion.net\/audio\/options\/options_fe_audio_file_909.mp3","option_saftey":1}],"yearFile":"http:\/\/hvo.flickfusion.net\/audio\/year\/year_fe_audio_file_66.mp3","makeFile":"http:\/\/hvo.flickfusion.net\/audio\/makes\/make_name_fe_audio_file_18.mp3","modelFile":"http:\/\/hvo.flickfusion.net\/audio\/mdlnames\/model_name_fe_audio_file_1101.mp3","modelHighlightFile":"http:\/\/hvo.flickfusion.net\/audio\/models\/model_fe_audio_file_1101.mp3","styleFile":"","bodytypeFile":"","transFile":"","engineFile":"","cylindersFile":"","driveTrainFile":"http:\/\/hvo.flickfusion.net\/audio\/domain_drivetrain\/drivetrain_fe_audio_file_1.mp3","priceFile":"","mileageFile":"http:\/\/hvo.flickfusion.net\/audio\/mileage\/miles_fe_audio_file_2.mp3","carfaxFile":"","emotionalFile":"http:\/\/hvo.flickfusion.net\/audio\/emotional\/emotional_fe_audio_file_9.mp3","introEmotionalFile":"http:\/\/hvo.flickfusion.net\/audio\/emotional\/ie_fe_audio_file_25.mp3","scriptFile":"http:\/\/hvo.flickfusion.net\/audio\/domain_scripts\/script_fe_audio_file_21.mp3","statusCode":"1","statusMessage":"Audio Files Sent"} 22:36:58 - /var/www/html/clients/13447/audio/C9B6B973-D604-D4C1-8681-FA7AB19C9847.wav 22:36:58 - ================Process HVO SOAP CALL CMD=========== /usr/bin/sox STATUS CODE 1 22:36:58 - /var/app/video_pre_processor/assets/hvo/ie_fe_audio_file_25.wav PlayTime:1.93 22:36:58 - /var/app/video_pre_processor/assets/hvo/year_fe_audio_file_66.wav PlayTime:1.88 22:36:58 - /var/app/video_pre_processor/assets/hvo/model_name_fe_audio_file_1101.wav PlayTime:0.75 22:36:58 - /var/app/video_pre_processor/assets/hvo/model_fe_audio_file_1101.wav PlayTime:11.77 22:36:58 - Skipping VTT for BODY - bodytypeFile 22:36:58 - Skipping VTT for PRICE - priceFile 22:36:58 - KM Check : 4529 | 0 22:36:58 - /var/app/video_pre_processor/assets/hvo/miles_fe_audio_file_2.wav PlayTime:3.03 22:36:59 - Curl Response - {"exterior":["Power Door Mirrors","Roof Rack: Rails Only","Convenience Package","Abs Brakes","Headlights, Automatic High Beam Dimmer","Blind Spot Monitor","Heated Mirrors","Alloy Wheels","Wheel Locks","Rear Spoiler","Power Mirrors","Brake Assist","Remote Keyless Entry","Abs Brakes (rear Only)","Headlights-auto-off","Body-color Bumpers","Integrated Turn Signal Mirrors","Roof Rack","4-wheel Disc Brakes","Outside Temperature Gauge","Anti-roll Bars","Auto Headlight On\/off","Front Wheel Independent Suspension","Electronic Stability Control","Traction Control","Rear Window Defroster","Rear Window Wiper","Variable Speed Intermittent Wipers"],"interior":["6 Speakers","Apple Carplay & Android Auto","Lane-keeping System","Dual Front Side Impact Airbags","Occupant Sensing Airbag","Illuminated Entry","Split Folding Rear Seat","Speed-sensing Steering","Automatic Temperature Control","Rear Seat Center Armrest","Navigation System","Back-up Camera","Bluetooth","Sirius Satellite Radio","Audio System, 6 Speakers","Heated Front Seats","Steering Wheel Audio Controls","Security System","Auto-dimming Rearview Mirror (ppo)","Automatic Climate Control","Trip Computer","Rear Seats, Split Folding","Rear Seats, Center Armrest","Multi-function Remote, Keyless\/illuminated Entry","Power Windows","First Aid Kit","Airbags - Passenger - Occupant Sensing Deactivation","Power Steering","Cargo Net","Cargo Tray","Leather Shift Knob","Leather Wrapped Steering Wheel","Cloth Seat Trim","Door Pockets","Telescopic Steering Wheel","Driver Vanity Mirror","Paddle Shifters","Tilt Steering Wheel","Dual Front Air Bags","Panic Alarm","Dual Zone A\/c","Passenger Vanity Mirror","Power Driver Seat","Tachometer","Carpeted Floor Mats","Center Arm Rest","Low Tire Pressure Warning","A\/c","Front Bucket Seats","Front Reading Lamps"]} 22:36:59 - ============={"exterior":["Power Door Mirrors","Roof Rack: Rails Only","Convenience Package","Abs Brakes","Headlights, Automatic High Beam Dimmer","Blind Spot Monitor","Heated Mirrors","Alloy Wheels","Wheel Locks","Rear Spoiler","Power Mirrors","Brake Assist","Remote Keyless Entry","Abs Brakes (rear Only)","Headlights-auto-off","Body-color Bumpers","Integrated Turn Signal Mirrors","Roof Rack","4-wheel Disc Brakes","Outside Temperature Gauge","Anti-roll Bars","Auto Headlight On\/off","Front Wheel Independent Suspension","Electronic Stability Control","Traction Control","Rear Window Defroster","Rear Window Wiper","Variable Speed Intermittent Wipers"],"interior":["6 Speakers","Apple Carplay & Android Auto","Lane-keeping System","Dual Front Side Impact Airbags","Occupant Sensing Airbag","Illuminated Entry","Split Folding Rear Seat","Speed-sensing Steering","Automatic Temperature Control","Rear Seat Center Armrest","Navigation System","Back-up Camera","Bluetooth","Sirius Satellite Radio","Audio System, 6 Speakers","Heated Front Seats","Steering Wheel Audio Controls","Security System","Auto-dimming Rearview Mirror (ppo)","Automatic Climate Control","Trip Computer","Rear Seats, Split Folding","Rear Seats, Center Armrest","Multi-function Remote, Keyless\/illuminated Entry","Power Windows","First Aid Kit","Airbags - Passenger - Occupant Sensing Deactivation","Power Steering","Cargo Net","Cargo Tray","Leather Shift Knob","Leather Wrapped Steering Wheel","Cloth Seat Trim","Door Pockets","Telescopic Steering Wheel","Driver Vanity Mirror","Paddle Shifters","Tilt Steering Wheel","Dual Front Air Bags","Panic Alarm","Dual Zone A\/c","Passenger Vanity Mirror","Power Driver Seat","Tachometer","Carpeted Floor Mats","Center Arm Rest","Low Tire Pressure Warning","A\/c","Front Bucket Seats","Front Reading Lamps"]}=============== 22:36:59 - /var/app/video_pre_processor/assets/hvo/options_fe_audio_file_55.wav PlayTime:2.35 22:36:59 - /var/app/video_pre_processor/assets/hvo/options_fe_audio_file_1428.wav PlayTime:1.32 22:36:59 - /var/app/video_pre_processor/assets/hvo/options_fe_audio_file_68.wav PlayTime:1.15 22:36:59 - /var/app/video_pre_processor/assets/hvo/options_fe_audio_file_343.wav PlayTime:1.25 22:36:59 - /var/app/video_pre_processor/assets/hvo/options_fe_audio_file_10.wav PlayTime:1.1 22:36:59 - /var/app/video_pre_processor/assets/hvo/options_fe_audio_file_104.wav PlayTime:1.12 22:36:59 - /var/app/video_pre_processor/assets/hvo/options_fe_audio_file_273.wav PlayTime:1.7 22:36:59 - /var/app/video_pre_processor/assets/hvo/options_fe_audio_file_63.wav PlayTime:1.57 22:36:59 - /var/app/video_pre_processor/assets/hvo/options_fe_audio_file_671.wav PlayTime:1.93 22:36:59 - /var/app/video_pre_processor/assets/hvo/options_fe_audio_file_162.wav PlayTime:1.88 22:36:59 - /var/app/video_pre_processor/assets/hvo/options_fe_audio_file_18.wav PlayTime:1.31 22:36:59 - ======= ALL Options ========== null 22:36:59 - /var/www/html/clients/13447/audio/C9B6B973-D604-D4C1-8681-FA7AB19C9847_option.wav 22:36:59 - /usr/bin/sox /var/app/video_pre_processor/assets/hvo/options_fe_audio_file_55.wav /var/app/video_pre_processor/assets/hvo/options_fe_audio_file_1428.wav /var/app/video_pre_processor/assets/hvo/options_fe_audio_file_68.wav /var/app/video_pre_processor/assets/hvo/options_fe_audio_file_343.wav /var/app/video_pre_processor/assets/hvo/options_fe_audio_file_10.wav /var/app/video_pre_processor/assets/hvo/options_fe_audio_file_104.wav /var/app/video_pre_processor/assets/hvo/options_fe_audio_file_273.wav /var/app/video_pre_processor/assets/hvo/options_fe_audio_file_63.wav /var/app/video_pre_processor/assets/hvo/options_fe_audio_file_671.wav /var/app/video_pre_processor/assets/hvo/options_fe_audio_file_162.wav /var/app/video_pre_processor/assets/hvo/options_fe_audio_file_18.wav /var/www/html/clients/13447/audio/C9B6B973-D604-D4C1-8681-FA7AB19C9847_option.wav 22:36:59 - /var/www/html/clients/13447/audio/C9B6B973-D604-D4C1-8681-FA7AB19C9847_option.wav PlayTime:16.68 22:36:59 - Skipping VTT for CARFAX - carfaxFile 22:36:59 - /var/app/video_pre_processor/assets/hvo/emotional_fe_audio_file_9.wav PlayTime:3.06 22:36:59 - /usr/bin/sox /var/app/video_pre_processor/assets/hvo/ie_fe_audio_file_25.wav /var/app/video_pre_processor/assets/hvo/year_fe_audio_file_66.wav /var/app/video_pre_processor/assets/hvo/model_name_fe_audio_file_1101.wav /var/app/video_pre_processor/assets/hvo/model_fe_audio_file_1101.wav /var/app/video_pre_processor/assets/hvo/miles_fe_audio_file_2.wav /var/www/html/clients/13447/audio/C9B6B973-D604-D4C1-8681-FA7AB19C9847_option.wav /var/app/video_pre_processor/assets/hvo/emotional_fe_audio_file_9.wav /var/www/html/clients/13447/audio/C9B6B973-D604-D4C1-8681-FA7AB19C9847_temp1.wav 22:36:59 - Return from CheckProfileVal function::0 - REPLACE_FULL_AUDIO - 22:36:59 - Return from CheckProfileVal function::0 - REPLACE_FULL_AUDIO_NEW - 22:36:59 - ========REPALCE AUDIO TRACK LISTING TYPE used \ n USED VALUE : 0 NEW AUDIO VALUE : { 0} ============== 22:36:59 - Video Length for audio merge: 0 22:36:59 - /root/bin/ffmpeg -i /var/www/html/clients/13447/audio/C9B6B973-D604-D4C1-8681-FA7AB19C9847.wav -f mp3 -ar 44100 -ab 320 -ac 2 -y /var/www/html/clients/13447/audio/C9B6B973-D604-D4C1-8681-FA7AB19C9847.mp3 ffmpeg version N-109053-g9b13078c6a Copyright (c) 2000-2022 the FFmpeg developers built with gcc 5.4.0 (GCC) configuration: --prefix=/root/ffmpeg_build --pkg-config-flags=--static --extra-cflags=-I/root/ffmpeg_build/include --extra-ldflags=-L/root/ffmpeg_build/lib --extra-libs=-lpthread --extra-libs=-lm --bindir=/root/bin --enable-gpl --enable-libfdk_aac --enable-libfreetype --enable-libmp3lame --enable-libopus --enable-libvpx --enable-libx264 --enable-openssl --enable-libx265 --enable-nonfree --enable-libvidstab libavutil 57. 42.100 / 57. 42.100 libavcodec 59. 52.101 / 59. 52.101 libavformat 59. 34.101 / 59. 34.101 libavdevice 59. 8.101 / 59. 8.101 libavfilter 8. 50.100 / 8. 50.100 libswscale 6. 8.112 / 6. 8.112 libswresample 4. 9.100 / 4. 9.100 libpostproc 56. 7.100 / 56. 7.100 Guessed Channel Layout for Input Stream #0.0 : stereo Input #0, wav, from '/var/www/html/clients/13447/audio/C9B6B973-D604-D4C1-8681-FA7AB19C9847.wav': Duration: 00:00:39.11, bitrate: 1411 kb/s Stream #0:0: Audio: pcm_s16le ([1][0][0][0] / 0x0001), 44100 Hz, 2 channels, s16, 1411 kb/s Stream mapping: Stream #0:0 -> #0:0 (pcm_s16le (native) -> mp3 (libmp3lame)) Press [q] to stop, [?] for help [libmp3lame @ 0x4574480] Bitrate 320 is extremely low, maybe you mean 320k The bitrate parameter is set too low. It takes bits/s as argument, not kbits/s Output #0, mp3, to '/var/www/html/clients/13447/audio/C9B6B973-D604-D4C1-8681-FA7AB19C9847.mp3': Metadata: TSSE : Lavf59.34.101 Stream #0:0: Audio: mp3, 44100 Hz, stereo, s16p, 0 kb/s Metadata: encoder : Lavc59.52.101 libmp3lame size= 0kB time=-577014:32:22.77 bitrate= -0.0kbits/s speed=N/A size= 97kB time=00:00:06.21 bitrate= 127.2kbits/s speed=12.4x size= 191kB time=00:00:12.20 bitrate= 128.2kbits/s speed=12.2x size= 256kB time=00:00:17.63 bitrate= 118.9kbits/s speed=11.7x size= 256kB time=00:00:24.05 bitrate= 87.2kbits/s speed= 12x size= 256kB time=00:00:30.69 bitrate= 68.3kbits/s speed=12.2x size= 512kB time=00:00:36.65 bitrate= 114.4kbits/s speed=12.2x size= 612kB time=00:00:39.10 bitrate= 128.2kbits/s speed=12.2x video:0kB audio:612kB subtitle:0kB other streams:0kB global headers:0kB muxing overhead: 0.040382% 22:37:02 - /var/app/video_pre_processor/assets/vidbot/_files/audio/RF3_Easy_Listening.mp3 PlayTime:1517.42 22:37:02 - Using RF3_Easy_Listening.mp3 - /var/app/video_pre_processor/assets/vidbot/_files/audio/RF3_Easy_Listening.mp3 22:37:02 - BG MUSIC FILE /var/app/video_pre_processor/assets/vidbot/_files/audio/RF3_Easy_Listening.mp3 22:37:02 - BG AUDIO CLIENT OVELAY VALUE : 2 22:37:02 - /var/www/html/clients/13447/audio/C9B6B973-D604-D4C1-8681-FA7AB19C9847.wav PlayTime:39.11 22:37:02 - VParent - VOLEN:41.11 | /var/www/html/clients/13447/audio/C9B6B973-D604-D4C1-8681-FA7AB19C9847.mp3 | /var/app/video_pre_processor/assets/vidbot/_files/audio/RF3_Easy_Listening.mp3 | /var/www/html/clients/13447/audio/C9B6B973-D604-D4C1-8681-FA7AB19C9847.wav 22:37:02 - AUDIO PROCESS RETURN VALUE: - 1 22:37:02 - update message_remote_queue set video_process_start = '2024-06-15 22:37:02' where queue_id = 284546 22:37:02 - CLIENT INFO DATA {"client_id":"13447","client_fk":"9253DB2E-EC95-FA85-50C8-B98695028D6B","client_acc_id":"75","client_name":"Mtn. View Hyundai","client_desc":"","client_color":"000000","client_player_color":"","client_textcolor":"","client_tts_text":"","client_tts_options":"","client_inactive":"0","client_createdate":"2020-06-17 14:24:31","client_enddate":"","client_update":"2023-11-01 08:26:52","client_email_forward":"leads@mtnviewhyundai.motosnap.com","client_dealer_id":"MV Hyundai","client_franchise_number":"00013","client_salesperson_name":"Don Erwin","client_address":"7154 Nashville Street","client_city":"Ringgold","client_state":"Georgia","client_zip":"37408","client_phone":"706-935-4500","client_url":"www.mvhyundai.com","client_fb_id":"https:\/\/www.facebook.com\/MtnViewHyundai\/","client_km":"0","client_special_price":"0","client_demo":"0","client_utube_flag":"0","client_cvo":"0","client_tts":"0","client_live_uv":"1","client_live_overlay":"2","client_av":"0","client_gv":"0","client_af":"0","client_video_email":"0","client_carfax":"0","client_intro":"0","client_outro":"0","client_slider":"0","client_music_id":"36","client_ei":"0","client_tts_vm":"2","client_hvo":"1","client_mobile":"0","client_portal":"0","client_instavid":"0","client_new_stock_video":"0","client_vidmagnet":"0","client_auto_play":"0","client_cpo":"1","client_vid_stab":"0","client_vp":"0","client_xl":"0","client_carstory":"1","client_360_player":"0","client_ece":"0","client_capture_video":"0","client_new_cvo":"0","client_pip":"1","client_account_id":"","client_crm_email":"","client_crm_dealer_id":"","client_crm_dealer_key":"","client_archive":"0","client_damage_photo":"0","client_package":"0","client_video_size":"HDLARGE","client_video_style":"RANDOM","client_lat_lng":"","client_comments":"drejrhyundai@gmail.com","THUMB_EXTRACT_TIME":"1","SHOW_CARSTORY":"1"} 22:37:02 - Map Exists: /var/www/html/clients/13447/library/map.jpg 22:37:02 - Checking CUSTOM_INTRO 22:37:02 - Checking CUSTOM_OUTRO 22:37:02 - ================CREATE VIDEO START =========== 22:37:02 - ================VIDEO JSON GEN START ============== 22:37:02 - Video Size 360 22:37:02 - ===========Video Theme font ================Dinot 22:37:02 - ==========Video fk : ==============C9B6B973-D604-D4C1-8681-FA7AB19C9847 22:37:02 - ==============AUDIO VIDEO CONFIG : =========={"BG_MUSIC":"RF3_Easy_Listening","THEME_BG_COLOR":"ffffff","THEME_ACCENTS_COLOR":"047ec1","THEME_FONT_COLOR":"000000","THEME_FONT":"Dinot","THEME_STYLE":"Ren","BG_VOL_LEVEL":"0.10","AUDIO_VO":"VO","VIDEO_SIZE":"VIDEO_LARGE","CUSTOM_INTRO":"","CUSTOM_OUTRO":"","THEME_KEY":"75_13447_Auto_Default_0_ALL","THEME_RANK":"2","THEME_CONFIG":"CLIENT_CONFIG","DISABLE_PRICE":"YES","DISPLAY_PRICE":"NO","OLD_BG_STYLE":"0"} 22:37:02 - CLIENT FKEY : 9253DB2E-EC95-FA85-50C8-B98695028D6B VIDEO FKEY : C9B6B973-D604-D4C1-8681-FA7AB19C9847 VEHICLE FKEY : 22:37:02 - INFO:: Video Type:SS Video Size:360 22:37:02 - Return from CheckProfileVal function::0 - DISPLAY_MILEAGE - NO 22:37:02 - Return from CheckProfileVal function::0 - DISPLAY_MILEAGE - NO 22:37:02 - ==================ClipsGen START ===================== 22:37:02 - Return from CheckProfileVal function::0 - AUDIO_VO - NO_VO 22:37:02 - Return from CheckProfileVal function::0 - AUDIO_VO - NO_VO 22:37:02 - Return from CheckProfileVal function::0 - AUDIO_VO - LIVE_VO 22:37:02 - Return from CheckProfileVal function::0 - AUDIO_VO - LIVE_VO 22:37:02 - Return from CheckProfileVal function::0 - DISPLAY_OPTIONS - NO 22:37:02 - Return from CheckProfileVal function::0 - DISPLAY_OPTIONS - NO 22:37:02 - Return from CheckProfileVal function::0 - DISPLAY_PRICE - NO 22:37:02 - Return from CheckProfileVal function::1 - DISPLAY_PRICE - NO 22:37:02 - Return from CheckProfileVal function::0 - DISPLAY_MILEAGE - NO 22:37:02 - Return from CheckProfileVal function::0 - DISPLAY_MILEAGE - NO 22:37:02 - Return from CheckProfileVal function::0 - DISPLAY_INFO - NO 22:37:02 - Return from CheckProfileVal function::0 - DISPLAY_INFO - NO 22:37:02 - Return from CheckProfileVal function::0 - DISPLAY_TITLE_WSNAME - NO 22:37:02 - Return from CheckProfileVal function::0 - DISPLAY_TITLE_WSNAME - NO 22:37:02 - Return from CheckProfileVal function::0 - DISPLAY_ALL_OVERLAYS - NO 22:37:02 - Return from CheckProfileVal function::0 - DISPLAY_ALL_OVERLAYS - NO 22:37:02 - Return from CheckProfileVal function::0 - DISPLAY_MAP - NO 22:37:02 - Return from CheckProfileVal function::0 - DISPLAY_MAP - NO 22:37:02 - =========THEME STYLE-FONT :Ren - Din ============ 22:37:02 - Fetching CarStory Data - 9253DB2E-EC95-FA85-50C8-B98695028D6B - 2E89BDC2-997A-B229-B117-A8EB40B87FAE 22:37:02 - Curl Response - {"badges":[],"Options":[{"":""},{"":""},{"":""},{"":""},{"":""}],"IIHS":{"iihs_name":""},"SAFETY":null} 22:37:02 - CARSTORY APIS : {"badges":[],"Options":[{"":""},{"":""},{"":""},{"":""},{"":""}],"IIHS":{"iihs_name":""},"SAFETY":null} 22:37:02 - Badge Count 0 - 0 22:37:02 - /usr/bin/sox /var/app/video_pre_processor/assets/music/silence_3.wav /var/www/html/clients/13447/audio/C9B6B973-D604-D4C1-8681-FA7AB19C9847.wav /var/www/html/clients/13447/audio/C9B6B973-D604-D4C1-8681-FA7AB19C9847_info_audio.wav 22:37:02 - /var/app/video_pre_processor/assets/vidbot/_files/audio/RF3_Easy_Listening.mp3 PlayTime:1517.42 22:37:03 - /var/app/video_pre_processor/assets/cpo/hyundai/hyundai_360.mp4 PlayTime:19.71 22:37:03 - Return from CheckProfileVal function::0 - BG_MUSIC_OVER_ALL_CLIPS - YES 22:37:03 - Return from CheckProfileVal function::0 - BG_MUSIC_OVER_ALL_CLIPS - YES 22:37:03 - AUDIO TIMER: {"INTRO":0,"YEAR":1.93,"MODEL":3.8099999999999996,"HIGH":4.56,"MILE":16.33,"ALL_OPTIONS":{"* General Options Intro":19.36,"Blind Spot Monitor":21.71,"Alloy Wheels":23.03,"Wheel Locks":24.18,"Rear Spoiler":25.43,"Brake Assist":26.53,"Remote Keyless Entry":27.650000000000002,"4-wheel Disc Brakes":29.35,"Front Wheel Independent Suspension":30.92,"Electronic Stability Control":32.85,"Traction Control":34.730000000000004},"OPTIONS":21.36,"OPTIONS_AUD_LENGTH":16.68,"ENDFILE":36.040000000000006} 22:37:03 - ===================ClipsGen END ======================== 22:37:03 - INFO:: VIDEO JSON : "C9B6B973-D604-D4C1-8681-FA7AB19C9847.json" 22:37:03 - node /var/app/Vidbot-V2/dist/vidbot.js --input /var/www/html/clients/13447/video/C9B6B973-D604-D4C1-8681-FA7AB19C9847.json --log debug > /var/www/html/clients/13447/video/C9B6B973-D604-D4C1-8681-FA7AB19C9847.log