libavutil      57. 42.100 / 57. 42.100
  libavcodec     59. 52.101 / 59. 52.101
  libavformat    59. 34.101 / 59. 34.101
  libavdevice    59.  8.101 / 59.  8.101
  libavfilter     8. 50.100 /  8. 50.100
  libswscale      6.  8.112 /  6.  8.112
  libswresample   4.  9.100 /  4.  9.100
  libpostproc    56.  7.100 / 56.  7.100
Guessed Channel Layout for Input Stream #0.0 : stereo
Input #0, wav, from '/var/app/video_pre_processor/assets/music/silence_120.wav':
  Duration: 00:02:27.38, bitrate: 1411 kb/s
  Stream #0:0: Audio: pcm_s16le ([1][0][0][0] / 0x0001), 44100 Hz, 2 channels, s16, 1411 kb/s
Stream mapping:
  Stream #0:0 -> #0:0 (pcm_s16le (native) -> pcm_s16le (native))
Press [q] to stop, [?] for help
[pcm_s16le @ 0x4126500] Bitrate 320 is extremely low, maybe you mean 320k
Output #0, wav, to '/var/www/html/clients/13447/audio/10944310-93F8-5A8E-B405-B7706BA191DE.wav':
  Metadata:
    ISFT            : Lavf59.34.101
  Stream #0:0: Audio: pcm_s16le ([1][0][0][0] / 0x0001), 44100 Hz, stereo, s16, 1411 kb/s
    Metadata:
      encoder         : Lavc59.52.101 pcm_s16le
size=       0kB time=00:00:00.00 bitrate=N/A speed=N/A    
size=   25389kB time=00:02:27.37 bitrate=1411.3kbits/s speed= 609x    
video:0kB audio:25389kB subtitle:0kB other streams:0kB global headers:0kB muxing overhead: 0.000300%
22:41:53 - /root/bin/ffmpeg -i /var/www/html/clients/13447/audio/10944310-93F8-5A8E-B405-B7706BA191DE.wav -f wav -ar 44100 -ab 320 -ac 2 -y /var/www/html/clients/13447/audio/10944310-93F8-5A8E-B405-B7706BA191DE.mp3
ffmpeg version N-109053-g9b13078c6a Copyright (c) 2000-2022 the FFmpeg developers
  built with gcc 5.4.0 (GCC)
  configuration: --prefix=/root/ffmpeg_build --pkg-config-flags=--static --extra-cflags=-I/root/ffmpeg_build/include --extra-ldflags=-L/root/ffmpeg_build/lib --extra-libs=-lpthread --extra-libs=-lm --bindir=/root/bin --enable-gpl --enable-libfdk_aac --enable-libfreetype --enable-libmp3lame --enable-libopus --enable-libvpx --enable-libx264 --enable-openssl --enable-libx265 --enable-nonfree --enable-libvidstab
  libavutil      57. 42.100 / 57. 42.100
  libavcodec     59. 52.101 / 59. 52.101
  libavformat    59. 34.101 / 59. 34.101
  libavdevice    59.  8.101 / 59.  8.101
  libavfilter     8. 50.100 /  8. 50.100
  libswscale      6.  8.112 /  6.  8.112
  libswresample   4.  9.100 /  4.  9.100
  libpostproc    56.  7.100 / 56.  7.100
Guessed Channel Layout for Input Stream #0.0 : stereo
Input #0, wav, from '/var/www/html/clients/13447/audio/10944310-93F8-5A8E-B405-B7706BA191DE.wav':
  Metadata:
    encoder         : Lavf59.34.101
  Duration: 00:02:27.38, bitrate: 1411 kb/s
  Stream #0:0: Audio: pcm_s16le ([1][0][0][0] / 0x0001), 44100 Hz, 2 channels, s16, 1411 kb/s
Stream mapping:
  Stream #0:0 -> #0:0 (pcm_s16le (native) -> pcm_s16le (native))
Press [q] to stop, [?] for help
[pcm_s16le @ 0x327c840] Bitrate 320 is extremely low, maybe you mean 320k
Output #0, wav, to '/var/www/html/clients/13447/audio/10944310-93F8-5A8E-B405-B7706BA191DE.mp3':
  Metadata:
    ISFT            : Lavf59.34.101
  Stream #0:0: Audio: pcm_s16le ([1][0][0][0] / 0x0001), 44100 Hz, stereo, s16, 1411 kb/s
    Metadata:
      encoder         : Lavc59.52.101 pcm_s16le
size=       0kB time=00:00:00.00 bitrate=N/A speed=N/A    
size=   25389kB time=00:02:27.37 bitrate=1411.3kbits/s speed=1.06e+03x    
video:0kB audio:25389kB subtitle:0kB other streams:0kB global headers:0kB muxing overhead: 0.000300%
22:41:53 - /var/app/video_pre_processor/assets/music/silence_120.wav 
 ADD AUDIO SILENCE END 

22:41:53 - Return from CheckProfileVal function::0 - AUDIO_VO - LIVE_VO
22:41:53 - Return from CheckProfileVal function::0 - AUDIO_VO - LIVE_VO
22:41:53 - Return from CheckProfileVal function::0 - DISPLAY_OPTIONS - NO
22:41:53 - Return from CheckProfileVal function::0 - DISPLAY_OPTIONS - NO
22:41:53 - Return from CheckProfileVal function::0 - DISPLAY_PRICE - NO
22:41:53 - Return from CheckProfileVal function::0 - DISPLAY_PRICE - NO
22:41:53 - Return from CheckProfileVal function::1 - DISABLE_PRICE - YES
22:41:53 - Return from CheckProfileVal function::0 - DISPLAY_MILEAGE - NO
22:41:53 - Return from CheckProfileVal function::0 - DISPLAY_MILEAGE - NO
22:41:53 - Return from CheckProfileVal function::0 - DISPLAY_INFO - NO
22:41:53 - Return from CheckProfileVal function::0 - DISPLAY_INFO - NO
22:41:53 - Return from CheckProfileVal function::0 - DISPLAY_TITLE_WSNAME - NO
22:41:53 - Return from CheckProfileVal function::0 - DISPLAY_TITLE_WSNAME - NO
22:41:53 - Return from CheckProfileVal function::0 - DISPLAY_ALL_OVERLAYS - NO
22:41:53 - Return from CheckProfileVal function::0 - DISPLAY_ALL_OVERLAYS - NO
22:41:53 - Return from CheckProfileVal function::0 - DISPLAY_MAP - NO
22:41:53 - Return from CheckProfileVal function::0 - DISPLAY_MAP - NO
22:41:53 - =========THEME STYLE-FONT : - Din  ============
22:41:53 - /usr/bin/sox  /var/app/video_pre_processor/assets/music/silence_3.wav /var/www/html/clients/13447/audio/10944310-93F8-5A8E-B405-B7706BA191DE.wav /var/www/html/clients/13447/audio/10944310-93F8-5A8E-B405-B7706BA191DE_info_audio.wav
22:41:53 - /var/app/video_pre_processor/assets/vidbot/_files/audio/Concept1.mp3 PlayTime:424.99
22:41:53 - Return from CheckProfileVal function::0 - BG_MUSIC_OVER_ALL_CLIPS - YES
22:41:53 - Return from CheckProfileVal function::0 - BG_MUSIC_OVER_ALL_CLIPS - YES
22:41:53 - AUDIO TIMER: 
{"INTRO":0,"YEAR":2.35,"MODEL":4.23,"HIGH":4.98,"ALL_OPTIONS":{"* General Options Intro":16.75,"Panoramic Moonroof":19.1,"Alloy Wheels":20.540000000000003,"Wheel Locks":21.69,"Rear Spoiler":22.94,"Power Liftgate":24.040000000000003,"Brake Assist":25.240000000000002,"Remote Keyless Entry":26.360000000000003,"4-wheel Disc Brakes":28.060000000000002,"Front Wheel Independent Suspension":29.630000000000003,"Electronic Stability Control":31.560000000000002},"OPTIONS":18.75,"OPTIONS_AUD_LENGTH":16.7,"ENDFILE":33.440000000000005}
22:41:53 - ===================ClipsGen END  ======================== 

22:41:53 - INFO:: VIDEO JSON : "10944310-93F8-5A8E-B405-B7706BA191DE.json"
22:41:53 - node /var/app/Vidbot-V2/dist/vidbot.js --input /var/www/html/clients/13447/video/10944310-93F8-5A8E-B405-B7706BA191DE.json --log debug > /var/www/html/clients/13447/video/10944310-93F8-5A8E-B405-B7706BA191DE.log
22:47:35 - Generated Video File./var/www/html/clients/13447/video/10944310-93F8-5A8E-B405-B7706BA191DE.mp4
22:47:35 - INFO:: Generated Video File./var/www/html/clients/13447/video/10944310-93F8-5A8E-B405-B7706BA191DE.mp4
22:47:35 - INFO:: Sprite & Bookmark Option(s) not enabled
22:47:35 - ================VIDEO JSON GEN END RETURN VALUE : 1 ============== 
22:47:35 - ================CREATE VIDEO END =========== 
 ERROR : { 0}
22:47:35 - Start Time:0
22:47:35 - 0##2.35##Stop by and take a look at
22:47:35 - 2.35##4.23##The 2024
22:47:35 - 4.23##4.98##Kona
22:47:35 - 4.98##16.75##The Hyundai Kona provides a wide variety of functionality in a small SUV body.  The energetic design is perfect for those looking to marry their adventurous side with their urban lifestyle.
22:47:35 - Replacing VTT String * General Options Intro to Here are some of this Vehicle's great options
22:47:35 - 16.75##19.1##Here are some of this Vehicle's great options
22:47:35 - 19.1##20.54##Panoramic Moonroof
22:47:35 - 20.54##21.69##Alloy Wheels
22:47:35 - 21.69##22.94##Wheel Locks
22:47:35 - 22.94##24.04##Rear Spoiler
22:47:35 - 24.04##25.24##Power Liftgate
22:47:35 - 25.24##26.36##Brake Assist
22:47:35 - 26.36##28.06##Remote Keyless Entry
22:47:35 - 28.06##29.63##4-wheel Disc Brakes
22:47:35 - 29.63##31.56##Front Wheel Independent Suspension
22:47:35 - 31.56##33.44##Electronic Stability Control
22:47:35 - 33.44##35.22##Come see the car for yourself.
22:47:36 - Curl Response - {"code":200,"status":"VTT Updated"}
22:47:36 - Contents - /postVTTString/ - VTT Updated - 200
0##2.35##Stop by and take a look at|||2.35##4.23##The 2024|||4.23##4.98##Kona|||4.98##16.75##The Hyundai Kona provides a wide variety of functionality in a small SUV body.  The energetic design is perfect for those looking to marry their adventurous side with their urban lifestyle.|||16.75##19.1##Here are some of this Vehicle's great options|||19.1##20.54##Panoramic Moonroof|||20.54##21.69##Alloy Wheels|||21.69##22.94##Wheel Locks|||22.94##24.04##Rear Spoiler|||24.04##25.24##Power Liftgate|||25.24##26.36##Brake Assist|||26.36##28.06##Remote Keyless Entry|||28.06##29.63##4-wheel Disc Brakes|||29.63##31.56##Front Wheel Independent Suspension|||31.56##33.44##Electronic Stability Control|||33.44##35.22##Come see the car for yourself.
22:47:36 - VIDEO JSON GEN RETURN VALUE: - 0
22:47:36 - update message_remote_queue set error=0, video = 1, error_message = concat( "", error_message ), process_start = '2024-06-15 22:41:50', audio_process_start = '2024-06-15 22:41:50', audio_process_end = '2024-06-15 22:41:53', video_process_start ='2024-06-15 22:41:53', video_process_end='2024-06-15 22:47:36' where queue_id = 284547
22:47:36 - ==92 - 1 Elapsed Time 346.4 ==

22:47:36 - update queue_status set stat_last_update=NOW(), type_cnt = 92, type_loop_cnt = 1585 where type_val = 'V4'
22:47:36 - Curl Response - {"code":200,"status":"Success:PostServerProcessDetails Posted For IP [209.59.156.167] and Process [V4]"}
22:47:36 - Contents - /postServerProcessDetails/ - Success:PostServerProcessDetails Posted For IP [209.59.156.167] and Process [V4] - 200
22:47:36 - update queue_status set stat_last_update=NOW(), type_cnt = 92, type_loop_cnt = 1585 where type_val = 'V4'
22:47:36 - Curl Response - {"code":200,"status":"Success:PostServerProcessDetails Posted For IP [209.59.156.167] and Process [V4]"}
22:47:36 - Contents - /postServerProcessDetails/ - Success:PostServerProcessDetails Posted For IP [209.59.156.167] and Process [V4] - 200
22:47:36 - ========== 92  - 598 mins 390.33108695652 Video Process / Start:2024-06-15 06:29:02 / Mod:3/16======
22:47:37 - Fetching  Video Jobs Mod Val : 3 Mod Limit : 16 Queue ID : 0 

22:47:37 - ========select * from message_remote_queue, hvo_data where queue_id%16 = 3 and image = 1 and video = 0 and error = 0 and hvo_queue_id = queue_id   order by high_priority_row desc, queue_id asc limit 1==================count =1
22:47:37 - Processing Auto VideoFKEY:D5EFE6AE-3CF3-6279-30C0-81FF70FF5CA8 - QueueID:284563 
22:47:37 - CLIENT INFO  CLIENT_FK  : 056859ED-DEAC-CBBA-4E7D-FA6805058B26 ,CLIENT_INFO :{"client_id":"10518","client_fk":"056859ED-DEAC-CBBA-4E7D-FA6805058B26","client_acc_id":"34","client_name":"Quirk Kia of Manchester","client_desc":"","client_color":"000000","client_player_color":"","client_textcolor":"","client_tts_text":"","client_tts_options":"","client_inactive":"0","client_createdate":"2019-08-22 10:45:10","client_enddate":"","client_update":"2020-02-20 16:03:16","client_email_forward":"quirkkiamanchester@eleadtrack.net","client_dealer_id":"10107","client_franchise_number":"","client_salesperson_name":"","client_address":"1300 S. Porter St.","client_city":"Manchester","client_state":"New Hampshire","client_zip":"03103","client_phone":"603-836-7600","client_url":"https://www.quirkkianh.com/","client_fb_id":"","client_km":"0","client_special_price":"0","client_demo":"0","client_utube_flag":"0","client_cvo":"0","client_tts":"0","client_live_uv":"0","client_live_overlay":"2","client_av":"0","client_gv":"0","client_af":"0","client_video_email":"0","client_carfax":"0","client_intro":"0","client_outro":"0","client_slider":"0","client_music_id":"36","client_ei":"0","client_tts_vm":"2","client_hvo":"1","client_mobile":"0","client_portal":"0","client_instavid":"0","client_new_stock_video":"0","client_vidmagnet":"0","client_auto_play":"0","client_cpo":"1","client_vid_stab":"0","client_vp":"0","client_xl":"0","client_carstory":"0","client_360_player":"0","client_ece":"0","client_capture_video":"0","client_new_cvo":"0","client_pip":"1","client_account_id":"1","client_crm_email":"","client_crm_dealer_id":"","client_crm_dealer_key":"","client_archive":"0","client_damage_photo":"0","client_package":"1","client_video_size":"HDLARGE","client_video_style":"RANDOM","client_lat_lng":"","client_comments":"","SHOW_CARSTORY":"0"}
22:47:37 - Rest Call: /client/videoDetails/056859ED-DEAC-CBBA-4E7D-FA6805058B26?video_key=D5EFE6AE-3CF3-6279-30C0-81FF70FF5CA8
22:47:37 - Curl Response - {"video_id":"49111242","video_fk":"D5EFE6AE-3CF3-6279-30C0-81FF70FF5CA8","vehicle_id":"43288497","video_client_id":"10518","video_script":"

delivers 26 highway mpg and 23 city mpg this kia sportage boasts a regular unleaded i-4 2.5 l\/152 engine powering this automatic transmission. x-line premium package -inc: smart power liftgate, led interior lighting, panoramic sunroof, glacial white pearl, cross bars x-line. <\/p>

this kia sportage comes equipped with these options <\/strong> cargo net hybrid w\/o audio, cargo mat w\/seatback protection, black, premium leatherette seat trim, wheels: 19 gloss black alloy, vinyl door trim insert, urethane gear shifter material, trip computer, transmission: 8-speed automatic -inc: drive mode select (normal, smart, sport, snow), transmission w\/driver selectable mode, towing equipment -inc: trailer sway control. <\/p>

stop by today <\/strong> a short visit to quirk kia nh located at 1300 south porter street, manchester, nh 03103 can get you a reliable sportage today<\/p>","video_tts_script":"","video_flv":"\/avavids\/1\/clients\/10518\/video\/D5EFE6AE-3CF3-6279-30C0-81FF70FF5CA8.mp4","video_create_time":"2024-06-01 22:14:34","video_update_time":"2024-06-15 14:32:37","audio_length":"0","video_options":"fuel type: gasoline fuel, standart body: , doors: 4, transmission: automatic, trim: x-line","video_custom_flag":"0","video_title":"2024 Kia Sportage","video_local_title":"2024 Kia Sportage","video_frames":"0","video_image_url":"\/avavids\/1\/clients\/10518\/images\/D5EFE6AE-3CF3-6279-30C0-81FF70FF5CA8_","video_pin_id":"0","video_tts_flag":"1","video_hvo_flag":"0","video_share":"1","video_default_flag":"1","video_imgsrc_urls":"https:\/\/images.dealerfire.com\/vehicles\/10107\/5XYK6CDF1RG227244\/1f116811c2bdd9cb26403b441d8731ff.jpg,https:\/\/images.dealerfire.com\/vehicles\/10107\/5XYK6CDF1RG227244\/501080d744b73e8801343e6b1cf78bcc.jpg,https:\/\/images.dealerfire.com\/vehicles\/10107\/5XYK6CDF1RG227244\/65dcc02479110e856e348aede2e01eac.jpg,https:\/\/images.dealerfire.com\/vehicles\/10107\/5XYK6CDF1RG227244\/aa6762f1d874502e7022513a50dbbe75.jpg,https:\/\/images.dealerfire.com\/vehicles\/10107\/5XYK6CDF1RG227244\/1e760d584e0d8e9941157340cd47b686.jpg,https:\/\/images.dealerfire.com\/vehicles\/10107\/5XYK6CDF1RG227244\/1ed40794415d6f5201621a3b1ef828e8.jpg,https:\/\/images.dealerfire.com\/vehicles\/10107\/5XYK6CDF1RG227244\/a5d20d491d233344c74f93fd2c1b43db.jpg,https:\/\/images.dealerfire.com\/vehicles\/10107\/5XYK6CDF1RG227244\/12092be15235e319e53c62186d3f5e60.jpg,https:\/\/images.dealerfire.com\/vehicles\/10107\/5XYK6CDF1RG227244\/d89ec5a716eddb2d9245e13a266f2b54.jpg,https:\/\/images.dealerfire.com\/vehicles\/10107\/5XYK6CDF1RG227244\/c4018afedb652b2d08401039556e28d1.jpg,https:\/\/images.dealerfire.com\/vehicles\/10107\/5XYK6CDF1RG227244\/7e96d3a909f972d83ea51b816306548c.jpg,https:\/\/images.dealerfire.com\/vehicles\/10107\/5XYK6CDF1RG227244\/91a56680b974a22022b00901e4ec3698.jpg,https:\/\/images.dealerfire.com\/vehicles\/10107\/5XYK6CDF1RG227244\/8fc3c600d80b1527db428dc723d65ad8.jpg,https:\/\/images.dealerfire.com\/vehicles\/10107\/5XYK6CDF1RG227244\/1834f5dceb3ebea1328b6445f5303e8f.jpg,https:\/\/images.dealerfire.com\/vehicles\/10107\/5XYK6CDF1RG227244\/500f04fa32a781979257b39a043f9b82.jpg,https:\/\/images.dealerfire.com\/vehicles\/10107\/5XYK6CDF1RG227244\/d6cabc92ee980036d23e2a8cd5bb4d4a.jpg,https:\/\/images.dealerfire.com\/vehicles\/10107\/5XYK6CDF1RG227244\/469988556849eb099d2aba63504f3e63.jpg,https:\/\/images.dealerfire.com\/vehicles\/10107\/5XYK6CDF1RG227244\/bedd6a3b52e735d482ca44d0f210812b.jpg,https:\/\/images.dealerfire.com\/vehicles\/10107\/5XYK6CDF1RG227244\/2208dfdea2558289e241b9f651b7cd68.jpg,https:\/\/images.dealerfire.com\/vehicles\/10107\/5XYK6CDF1RG227244\/c110de2a99f9030fb848bf6cf3c4f324.jpg,https:\/\/images.dealerfire.com\/vehicles\/10107\/5XYK6CDF1RG227244\/15fc976e213d96de69de118285c936aa.jpg,https:\/\/images.dealerfire.com\/vehicles\/10107\/5XYK6CDF1RG227244\/4fa0361302a85655226dcbfd0b43cbfe.jpg,https:\/\/images.dealerfire.com\/vehicles\/10107\/5XYK6CDF1RG227244\/1fef14ee8bd8051255db34a51a99d2ea.jpg,https:\/\/images.dealerfire.com\/vehicles\/10107\/5XYK6CDF1RG227244\/26dc93bae56e97e7d7dfa14e9860930a.jpg,https:\/\/images.dealerfire.com\/vehicles\/10107\/5XYK6CDF1RG227244\/96be68f991e4d31334721e4c0aff7b1d.jpg,https:\/\/images.dealerfire.com\/vehicles\/10107\/5XYK6CDF1RG227244\/5e1ce9bfbf60a246996129fb1b77f73b.jpg,https:\/\/images.dealerfire.com\/vehicles\/10107\/5XYK6CDF1RG227244\/ab388a4916ab96c7eb2078f3d255acac.jpg","video_thumbnail_url":"","video_rendering_flag":"1","video_error_rendering":"","video_view_cnt":"54","video_delete_flag":"0","video_delete_time":"","video_batch_proc":"1","video_meta_data":"","video_custom_default":"0","video_external_flv":"https:\/\/gcsimages.s3.us-west-001.backblazeb2.com\/clients\/10518\/video\/D5EFE6AE-3CF3-6279-30C0-81FF70FF5CA8.mp4","video_external_wflv":"","video_external_iflv":"","video_custom_uploaded":"0","vehicle_client_id":"10518","vehicle_fkey":"D23DD897-7084-535D-4ED3-B7A6D64BE28C","vehicle_uid":"56969840","vehicle_vin":"5XYK6CDF1RG227244","vehicle_stock":"KS9511","vehicle_year":"2024","vehicle_make":"Kia","vehicle_model":"Sportage","vehicle_trim":"X-Line","vehicle_price":"35965","vehicle_mileage":"15","vehicle_int_color":"black","vehicle_ext_color":"white","vehicle_body_type":"sport utility","vehicle_listing_type":"New","vehicle_citympg":"","vehicle_hwympg":"","vehicle_combmpg":"","vehicle_cylinders":"4","vehicle_engine_size":"2.5","vehicle_trans":"A","vehicle_drivetrain":"AWD","vehicle_passengers":"0","vehicle_doors":"0","vehicle_certified":"0","vehicle_special":"0","vehicle_options":"fuel type: gasoline fuel, standart body: , doors: 4, transmission: automatic, trim: x-line","vehicle_desc":"

delivers 26 highway mpg and 23 city mpg this kia sportage boasts a regular unleaded i-4 2.5 l\/152 engine powering this automatic transmission. x-line premium package -inc: smart power liftgate, led interior lighting, panoramic sunroof, glacial white pearl, cross bars x-line. <\/p>

this kia sportage comes equipped with these options <\/strong> cargo net hybrid w\/o audio, cargo mat w\/seatback protection, black, premium leatherette seat trim, wheels: 19 gloss black alloy, vinyl door trim insert, urethane gear shifter material, trip computer, transmission: 8-speed automatic -inc: drive mode select (normal, smart, sport, snow), transmission w\/driver selectable mode, towing equipment -inc: trailer sway control. <\/p>

stop by today <\/strong> a short visit to quirk kia nh located at 1300 south porter street, manchester, nh 03103 can get you a reliable sportage today<\/p>","vehicle_chrome_style_id":"","vehicle_model_num":"","vehicle_stock_video":"0","vehicle_img_cnt":"0","veh_more_info":"","vehicle_create_date":"2024-06-01 22:14:34","vehicle_update_date":"2024-06-15 22:16:07","vehicle_md5":"ef12631ae36592a70545cd63afee9d9c","vehicle_status":"U","vehicle_add":"0","vehicle_delete_flag":"0","vehicle_delete_time":""} 22:47:37 - Rest Call: /client/getAudioVideoConfig/056859ED-DEAC-CBBA-4E7D-FA6805058B26?listing_type=New&video_type=Auto&certified=0&vehicle_make=Kia 22:47:37 - Curl Response - {"BG_MUSIC":"Orchestra-3_30","THEME_BG_COLOR":"ffffff","THEME_ACCENTS_COLOR":"047ec1","THEME_FONT_COLOR":"000000","THEME_FONT":"Din","THEME_STYLE":"Ren","BG_VOL_LEVEL":"0.25","AUDIO_VO":"","VIDEO_SIZE":"VIDEO_LARGE","CUSTOM_INTRO":"","CUSTOM_OUTRO":"","THEME_KEY":"0_0_Auto_Default_0_ALL","THEME_RANK":"2","THEME_CONFIG":"GLOBAL_CONFIG","OLD_BG_STYLE":"0"} 22:47:37 - Return from CheckProfileVal function::0 - DISABLE_PRICE - YES 22:47:37 - Return from CheckProfileVal function::0 - DISABLE_MILEAGE - YES 22:47:37 - Return from CheckProfileVal function::0 - DISABLE_CARSTORY - YES 22:47:37 - Config Information for D5EFE6AE-3CF3-6279-30C0-81FF70FF5CA8 - Width:640 - CPO:1/0 - CF:0 - CS:0 - Intro:0 - Outro:0 - Ovleray:2 -THEME:0_0_Auto_Default_0_ALL 22:47:37 - https://images.dealerfire.com/vehicles/10107/5XYK6CDF1RG227244/1f116811c2bdd9cb26403b441d8731ff.jpg /var/www/html/clients/10518/images/D5EFE6AE-3CF3-6279-30C0-81FF70FF5CA8_1.jpg 22:47:37 - https://images.dealerfire.com/vehicles/10107/5XYK6CDF1RG227244/501080d744b73e8801343e6b1cf78bcc.jpg /var/www/html/clients/10518/images/D5EFE6AE-3CF3-6279-30C0-81FF70FF5CA8_2.jpg 22:47:37 - https://images.dealerfire.com/vehicles/10107/5XYK6CDF1RG227244/65dcc02479110e856e348aede2e01eac.jpg /var/www/html/clients/10518/images/D5EFE6AE-3CF3-6279-30C0-81FF70FF5CA8_3.jpg 22:47:37 - https://images.dealerfire.com/vehicles/10107/5XYK6CDF1RG227244/aa6762f1d874502e7022513a50dbbe75.jpg /var/www/html/clients/10518/images/D5EFE6AE-3CF3-6279-30C0-81FF70FF5CA8_4.jpg 22:47:37 - https://images.dealerfire.com/vehicles/10107/5XYK6CDF1RG227244/1e760d584e0d8e9941157340cd47b686.jpg /var/www/html/clients/10518/images/D5EFE6AE-3CF3-6279-30C0-81FF70FF5CA8_5.jpg 22:47:37 - https://images.dealerfire.com/vehicles/10107/5XYK6CDF1RG227244/1ed40794415d6f5201621a3b1ef828e8.jpg /var/www/html/clients/10518/images/D5EFE6AE-3CF3-6279-30C0-81FF70FF5CA8_6.jpg 22:47:37 - https://images.dealerfire.com/vehicles/10107/5XYK6CDF1RG227244/a5d20d491d233344c74f93fd2c1b43db.jpg /var/www/html/clients/10518/images/D5EFE6AE-3CF3-6279-30C0-81FF70FF5CA8_7.jpg 22:47:37 - https://images.dealerfire.com/vehicles/10107/5XYK6CDF1RG227244/12092be15235e319e53c62186d3f5e60.jpg /var/www/html/clients/10518/images/D5EFE6AE-3CF3-6279-30C0-81FF70FF5CA8_8.jpg 22:47:37 - https://images.dealerfire.com/vehicles/10107/5XYK6CDF1RG227244/d89ec5a716eddb2d9245e13a266f2b54.jpg /var/www/html/clients/10518/images/D5EFE6AE-3CF3-6279-30C0-81FF70FF5CA8_9.jpg 22:47:37 - https://images.dealerfire.com/vehicles/10107/5XYK6CDF1RG227244/c4018afedb652b2d08401039556e28d1.jpg /var/www/html/clients/10518/images/D5EFE6AE-3CF3-6279-30C0-81FF70FF5CA8_10.jpg 22:47:37 - https://images.dealerfire.com/vehicles/10107/5XYK6CDF1RG227244/7e96d3a909f972d83ea51b816306548c.jpg /var/www/html/clients/10518/images/D5EFE6AE-3CF3-6279-30C0-81FF70FF5CA8_11.jpg 22:47:37 - https://images.dealerfire.com/vehicles/10107/5XYK6CDF1RG227244/91a56680b974a22022b00901e4ec3698.jpg /var/www/html/clients/10518/images/D5EFE6AE-3CF3-6279-30C0-81FF70FF5CA8_12.jpg 22:47:37 - https://images.dealerfire.com/vehicles/10107/5XYK6CDF1RG227244/8fc3c600d80b1527db428dc723d65ad8.jpg /var/www/html/clients/10518/images/D5EFE6AE-3CF3-6279-30C0-81FF70FF5CA8_13.jpg 22:47:37 - https://images.dealerfire.com/vehicles/10107/5XYK6CDF1RG227244/1834f5dceb3ebea1328b6445f5303e8f.jpg /var/www/html/clients/10518/images/D5EFE6AE-3CF3-6279-30C0-81FF70FF5CA8_14.jpg 22:47:37 - https://images.dealerfire.com/vehicles/10107/5XYK6CDF1RG227244/500f04fa32a781979257b39a043f9b82.jpg /var/www/html/clients/10518/images/D5EFE6AE-3CF3-6279-30C0-81FF70FF5CA8_15.jpg 22:47:37 - https://images.dealerfire.com/vehicles/10107/5XYK6CDF1RG227244/d6cabc92ee980036d23e2a8cd5bb4d4a.jpg /var/www/html/clients/10518/images/D5EFE6AE-3CF3-6279-30C0-81FF70FF5CA8_16.jpg 22:47:37 - https://images.dealerfire.com/vehicles/10107/5XYK6CDF1RG227244/469988556849eb099d2aba63504f3e63.jpg /var/www/html/clients/10518/images/D5EFE6AE-3CF3-6279-30C0-81FF70FF5CA8_17.jpg 22:47:37 - https://images.dealerfire.com/vehicles/10107/5XYK6CDF1RG227244/bedd6a3b52e735d482ca44d0f210812b.jpg /var/www/html/clients/10518/images/D5EFE6AE-3CF3-6279-30C0-81FF70FF5CA8_18.jpg 22:47:37 - https://images.dealerfire.com/vehicles/10107/5XYK6CDF1RG227244/2208dfdea2558289e241b9f651b7cd68.jpg /var/www/html/clients/10518/images/D5EFE6AE-3CF3-6279-30C0-81FF70FF5CA8_19.jpg 22:47:37 - https://images.dealerfire.com/vehicles/10107/5XYK6CDF1RG227244/c110de2a99f9030fb848bf6cf3c4f324.jpg /var/www/html/clients/10518/images/D5EFE6AE-3CF3-6279-30C0-81FF70FF5CA8_20.jpg 22:47:37 - Image Count 20 22:47:37 - Setting Female English VO Constants | 0 | 0 22:47:37 - ====HVO Value:1, Audio Value:0=== 22:47:37 - Return from CheckProfileVal function::0 - AUDIO_INTRO - 22:47:37 - Return from CheckProfileVal function::0 - AUDIO_OUTRO - 22:47:37 - ================Process HVO=========== 1 22:47:37 - ================CLIENT SELECT TTS VM VALUE=========== 2 22:47:37 - 2 - 2 - /var/app/video_pre_processor/assets/hvo/ 22:47:37 - Setting Female English VO Constants | 0 | 2 22:47:37 - HVO Soap Call Method - AudoListWMIE 22:47:37 - Getting Text For Audio Files 22:47:37 - HVO Soap Call Method - AudoListTWMIE 22:47:37 - Getting Text For Audio Files emotionalFile 13 22:47:38 - HVO Soap Call Method - GetTTScripts 22:47:38 - Getting Text For Audio Files introEmotionalFile 20 22:47:38 - HVO Soap Call Method - GetTTScripts 22:47:38 - Getting Text For Audio Files scriptFile 23 22:47:38 - HVO Soap Call Method - GetTTScripts 22:47:38 - ================TTS VM VALUE=========== 2 22:47:38 - ================GetVOFiles=========== {"OptionFiles":[{"option_str":"* General Options Intro","option_file":"http:\/\/hvo.flickfusion.net\/audio\/options\/options_fe_audio_file_55.mp3","option_saftey":1}],"yearFile":"http:\/\/hvo.flickfusion.net\/audio\/year\/year_fe_audio_file_66.mp3","makeFile":"http:\/\/hvo.flickfusion.net\/audio\/makes\/make_name_fe_audio_file_23.mp3","modelFile":"http:\/\/hvo.flickfusion.net\/audio\/mdlnames\/model_name_fe_audio_file_179.mp3","modelHighlightFile":"http:\/\/hvo.flickfusion.net\/audio\/models\/model_fe_audio_file_179.mp3","styleFile":"","bodytypeFile":"","transFile":"","engineFile":"http:\/\/hvo.flickfusion.net\/audio\/domain_enginesize\/enginesize_fe_audio_file_5.mp3","cylindersFile":"http:\/\/hvo.flickfusion.net\/audio\/domain_cylinders\/cylinder_fe_audio_file_4.mp3","driveTrainFile":"http:\/\/hvo.flickfusion.net\/audio\/domain_drivetrain\/drivetrain_fe_audio_file_4.mp3","priceFile":"http:\/\/hvo.flickfusion.net\/audio\/prices\/price_fe_audio_file_16.mp3","mileageFile":"http:\/\/hvo.flickfusion.net\/audio\/mileage\/miles_fe_audio_file_33.mp3","carfaxFile":"","emotionalFile":"http:\/\/hvo.flickfusion.net\/audio\/emotional\/emotional_fe_audio_file_13.mp3","introEmotionalFile":"http:\/\/hvo.flickfusion.net\/audio\/emotional\/ie_fe_audio_file_20.mp3","scriptFile":"http:\/\/hvo.flickfusion.net\/audio\/domain_scripts\/script_fe_audio_file_23.mp3","statusCode":"1","statusMessage":"Audio Files Sent"} 22:47:38 - /var/www/html/clients/10518/audio/D5EFE6AE-3CF3-6279-30C0-81FF70FF5CA8.wav 22:47:38 - ================Process HVO SOAP CALL CMD=========== /usr/bin/sox STATUS CODE 1 22:47:38 - /var/app/video_pre_processor/assets/hvo/ie_fe_audio_file_20.wav PlayTime:1.57 22:47:38 - /var/app/video_pre_processor/assets/hvo/year_fe_audio_file_66.wav PlayTime:1.88 22:47:38 - /var/app/video_pre_processor/assets/hvo/model_name_fe_audio_file_179.wav PlayTime:0.94 22:47:38 - /var/app/video_pre_processor/assets/hvo/model_fe_audio_file_179.wav PlayTime:8.57 22:47:38 - Skipping VTT for BODY - bodytypeFile 22:47:38 - /var/app/video_pre_processor/assets/hvo/price_fe_audio_file_16.wav PlayTime:2.82 22:47:38 - KM Check : 15 | 0 22:47:38 - /var/app/video_pre_processor/assets/hvo/miles_fe_audio_file_33.wav PlayTime:2.61 22:47:38 - Curl Response - {"error":"Vehicle options not found for vehicle key[D23DD897-7084-535D-4ED3-B7A6D64BE28C]"} 22:47:38 - ============={"error":"Vehicle options not found for vehicle key[D23DD897-7084-535D-4ED3-B7A6D64BE28C]"}=============== 22:47:38 - Skipping Option Processing - Count:1 22:47:38 - Skipping VTT for CARFAX - carfaxFile 22:47:38 - /var/app/video_pre_processor/assets/hvo/emotional_fe_audio_file_13.wav PlayTime:4.65 22:47:38 - /usr/bin/sox /var/app/video_pre_processor/assets/hvo/ie_fe_audio_file_20.wav /var/app/video_pre_processor/assets/hvo/year_fe_audio_file_66.wav /var/app/video_pre_processor/assets/hvo/model_name_fe_audio_file_179.wav /var/app/video_pre_processor/assets/hvo/model_fe_audio_file_179.wav /var/app/video_pre_processor/assets/hvo/price_fe_audio_file_16.wav /var/app/video_pre_processor/assets/hvo/miles_fe_audio_file_33.wav /var/app/video_pre_processor/assets/hvo/emotional_fe_audio_file_13.wav /var/www/html/clients/10518/audio/D5EFE6AE-3CF3-6279-30C0-81FF70FF5CA8_temp1.wav 22:47:38 - Return from CheckProfileVal function::0 - REPLACE_FULL_AUDIO - 22:47:38 - Return from CheckProfileVal function::0 - REPLACE_FULL_AUDIO_NEW - 22:47:38 - ========REPALCE AUDIO TRACK LISTING TYPE new \ n USED VALUE : 0 NEW AUDIO VALUE : { 0} ============== 22:47:38 - Video Length for audio merge: 0 22:47:38 - /root/bin/ffmpeg -i /var/www/html/clients/10518/audio/D5EFE6AE-3CF3-6279-30C0-81FF70FF5CA8.wav -f mp3 -ar 44100 -ab 320 -ac 2 -y /var/www/html/clients/10518/audio/D5EFE6AE-3CF3-6279-30C0-81FF70FF5CA8.mp3 ffmpeg version N-109053-g9b13078c6a Copyright (c) 2000-2022 the FFmpeg developers built with gcc 5.4.0 (GCC) configuration: --prefix=/root/ffmpeg_build --pkg-config-flags=--static --extra-cflags=-I/root/ffmpeg_build/include --extra-ldflags=-L/root/ffmpeg_build/lib --extra-libs=-lpthread --extra-libs=-lm --bindir=/root/bin --enable-gpl --enable-libfdk_aac --enable-libfreetype --enable-libmp3lame --enable-libopus --enable-libvpx --enable-libx264 --enable-openssl --enable-libx265 --enable-nonfree --enable-libvidstab libavutil 57. 42.100 / 57. 42.100 libavcodec 59. 52.101 / 59. 52.101 libavformat 59. 34.101 / 59. 34.101 libavdevice 59. 8.101 / 59. 8.101 libavfilter 8. 50.100 / 8. 50.100 libswscale 6. 8.112 / 6. 8.112 libswresample 4. 9.100 / 4. 9.100 libpostproc 56. 7.100 / 56. 7.100 Guessed Channel Layout for Input Stream #0.0 : stereo Input #0, wav, from '/var/www/html/clients/10518/audio/D5EFE6AE-3CF3-6279-30C0-81FF70FF5CA8.wav': Duration: 00:00:23.04, bitrate: 1411 kb/s Stream #0:0: Audio: pcm_s16le ([1][0][0][0] / 0x0001), 44100 Hz, 2 channels, s16, 1411 kb/s Stream mapping: Stream #0:0 -> #0:0 (pcm_s16le (native) -> mp3 (libmp3lame)) Press [q] to stop, [?] for help [libmp3lame @ 0x4863480] Bitrate 320 is extremely low, maybe you mean 320k The bitrate parameter is set too low. It takes bits/s as argument, not kbits/s Output #0, mp3, to '/var/www/html/clients/10518/audio/D5EFE6AE-3CF3-6279-30C0-81FF70FF5CA8.mp3': Metadata: TSSE : Lavf59.34.101 Stream #0:0: Audio: mp3, 44100 Hz, stereo, s16p, 0 kb/s Metadata: encoder : Lavc59.52.101 libmp3lame size= 0kB time=-577014:32:22.77 bitrate= -0.0kbits/s speed=N/A size= 101kB time=00:00:06.40 bitrate= 128.8kbits/s speed=12.8x size= 203kB time=00:00:12.93 bitrate= 128.4kbits/s speed=12.9x size= 256kB time=00:00:19.59 bitrate= 107.0kbits/s speed= 13x size= 361kB time=00:00:23.01 bitrate= 128.4kbits/s speed=13.2x video:0kB audio:360kB subtitle:0kB other streams:0kB global headers:0kB muxing overhead: 0.068553% 22:47:40 - /var/app/video_pre_processor/assets/vidbot/_files/audio/Orchestra-3_30.mp3 PlayTime:751.67 22:47:40 - Using Orchestra-3_30.mp3 - /var/app/video_pre_processor/assets/vidbot/_files/audio/Orchestra-3_30.mp3 22:47:40 - BG MUSIC FILE /var/app/video_pre_processor/assets/vidbot/_files/audio/Orchestra-3_30.mp3 22:47:40 - BG AUDIO CLIENT OVELAY VALUE : 2 22:47:40 - /var/www/html/clients/10518/audio/D5EFE6AE-3CF3-6279-30C0-81FF70FF5CA8.wav PlayTime:23.04 22:47:40 - VParent - VOLEN:25.04 | /var/www/html/clients/10518/audio/D5EFE6AE-3CF3-6279-30C0-81FF70FF5CA8.mp3 | /var/app/video_pre_processor/assets/vidbot/_files/audio/Orchestra-3_30.mp3 | /var/www/html/clients/10518/audio/D5EFE6AE-3CF3-6279-30C0-81FF70FF5CA8.wav 22:47:40 - AUDIO PROCESS RETURN VALUE: - 1 22:47:40 - update message_remote_queue set video_process_start = '2024-06-15 22:47:40' where queue_id = 284563 22:47:40 - CLIENT INFO DATA {"client_id":"10518","client_fk":"056859ED-DEAC-CBBA-4E7D-FA6805058B26","client_acc_id":"34","client_name":"Quirk Kia of Manchester","client_desc":"","client_color":"000000","client_player_color":"","client_textcolor":"","client_tts_text":"","client_tts_options":"","client_inactive":"0","client_createdate":"2019-08-22 10:45:10","client_enddate":"","client_update":"2020-02-20 16:03:16","client_email_forward":"quirkkiamanchester@eleadtrack.net","client_dealer_id":"10107","client_franchise_number":"","client_salesperson_name":"","client_address":"1300 S. Porter St.","client_city":"Manchester","client_state":"New Hampshire","client_zip":"03103","client_phone":"603-836-7600","client_url":"https:\/\/www.quirkkianh.com\/","client_fb_id":"","client_km":"0","client_special_price":"0","client_demo":"0","client_utube_flag":"0","client_cvo":"0","client_tts":"0","client_live_uv":"0","client_live_overlay":"2","client_av":"0","client_gv":"0","client_af":"0","client_video_email":"0","client_carfax":"0","client_intro":"0","client_outro":"0","client_slider":"0","client_music_id":"36","client_ei":"0","client_tts_vm":"2","client_hvo":"1","client_mobile":"0","client_portal":"0","client_instavid":"0","client_new_stock_video":"0","client_vidmagnet":"0","client_auto_play":"0","client_cpo":"1","client_vid_stab":"0","client_vp":"0","client_xl":"0","client_carstory":"0","client_360_player":"0","client_ece":"0","client_capture_video":"0","client_new_cvo":"0","client_pip":"1","client_account_id":"1","client_crm_email":"","client_crm_dealer_id":"","client_crm_dealer_key":"","client_archive":"0","client_damage_photo":"0","client_package":"1","client_video_size":"HDLARGE","client_video_style":"RANDOM","client_lat_lng":"","client_comments":"","SHOW_CARSTORY":"0"} 22:47:40 - Map Exists: /var/www/html/clients/10518/library/map.jpg 22:47:40 - Checking CUSTOM_INTRO 22:47:40 - Checking CUSTOM_OUTRO 22:47:40 - ================CREATE VIDEO START =========== 22:47:40 - ================VIDEO JSON GEN START ============== 22:47:40 - Video Size 360 22:47:40 - ===========Video Theme font ================Dinot 22:47:40 - ==========Video fk : ==============D5EFE6AE-3CF3-6279-30C0-81FF70FF5CA8 22:47:40 - ==============AUDIO VIDEO CONFIG : =========={"BG_MUSIC":"Orchestra-3_30","THEME_BG_COLOR":"ffffff","THEME_ACCENTS_COLOR":"047ec1","THEME_FONT_COLOR":"000000","THEME_FONT":"Dinot","THEME_STYLE":"Ren","BG_VOL_LEVEL":"0.25","AUDIO_VO":"","VIDEO_SIZE":"VIDEO_LARGE","CUSTOM_INTRO":"","CUSTOM_OUTRO":"","THEME_KEY":"0_0_Auto_Default_0_ALL","THEME_RANK":"2","THEME_CONFIG":"GLOBAL_CONFIG","OLD_BG_STYLE":"0"} 22:47:40 - CLIENT FKEY : 056859ED-DEAC-CBBA-4E7D-FA6805058B26 VIDEO FKEY : D5EFE6AE-3CF3-6279-30C0-81FF70FF5CA8 VEHICLE FKEY : 22:47:40 - INFO:: Video Type:SS Video Size:360 22:47:40 - Return from CheckProfileVal function::0 - DISPLAY_MILEAGE - NO 22:47:40 - Return from CheckProfileVal function::0 - DISPLAY_MILEAGE - NO 22:47:40 - Return from CheckProfileVal function::0 - DISPLAY_PRICE - NO 22:47:40 - Return from CheckProfileVal function::0 - DISPLAY_PRICE - NO 22:47:40 - ==================ClipsGen START ===================== 22:47:40 - Return from CheckProfileVal function::0 - AUDIO_VO - NO_VO 22:47:40 - Return from CheckProfileVal function::0 - AUDIO_VO - NO_VO 22:47:40 - Return from CheckProfileVal function::0 - AUDIO_VO - LIVE_VO 22:47:40 - Return from CheckProfileVal function::0 - AUDIO_VO - LIVE_VO 22:47:40 - Return from CheckProfileVal function::0 - DISPLAY_OPTIONS - NO 22:47:40 - Return from CheckProfileVal function::0 - DISPLAY_OPTIONS - NO 22:47:40 - Return from CheckProfileVal function::0 - DISPLAY_PRICE - NO 22:47:40 - Return from CheckProfileVal function::0 - DISPLAY_PRICE - NO 22:47:40 - Return from CheckProfileVal function::0 - DISABLE_PRICE - YES 22:47:40 - Return from CheckProfileVal function::0 - DISPLAY_MILEAGE - NO 22:47:40 - Return from CheckProfileVal function::0 - DISPLAY_MILEAGE - NO 22:47:40 - Return from CheckProfileVal function::0 - DISPLAY_INFO - NO 22:47:40 - Return from CheckProfileVal function::0 - DISPLAY_INFO - NO 22:47:40 - Return from CheckProfileVal function::0 - DISPLAY_TITLE_WSNAME - NO 22:47:40 - Return from CheckProfileVal function::0 - DISPLAY_TITLE_WSNAME - NO 22:47:40 - Return from CheckProfileVal function::0 - DISPLAY_ALL_OVERLAYS - NO 22:47:40 - Return from CheckProfileVal function::0 - DISPLAY_ALL_OVERLAYS - NO 22:47:40 - Return from CheckProfileVal function::0 - DISPLAY_MAP - NO 22:47:40 - Return from CheckProfileVal function::0 - DISPLAY_MAP - NO 22:47:40 - =========THEME STYLE-FONT :Ren - Din ============ 22:47:40 - /usr/bin/sox /var/app/video_pre_processor/assets/music/silence_3.wav /var/www/html/clients/10518/audio/D5EFE6AE-3CF3-6279-30C0-81FF70FF5CA8.wav /var/www/html/clients/10518/audio/D5EFE6AE-3CF3-6279-30C0-81FF70FF5CA8_info_audio.wav 22:47:40 - /var/app/video_pre_processor/assets/vidbot/_files/audio/Orchestra-3_30.mp3 PlayTime:751.67 22:47:40 - Return from CheckProfileVal function::0 - BG_MUSIC_OVER_ALL_CLIPS - YES 22:47:40 - Return from CheckProfileVal function::0 - BG_MUSIC_OVER_ALL_CLIPS - YES 22:47:40 - AUDIO TIMER: {"INTRO":0,"YEAR":1.57,"MODEL":3.45,"HIGH":4.390000000000001,"PRICE":12.96,"MILE":15.780000000000001,"ENDFILE":18.39} 22:47:40 - ===================ClipsGen END ======================== 22:47:40 - INFO:: VIDEO JSON : "D5EFE6AE-3CF3-6279-30C0-81FF70FF5CA8.json" 22:47:40 - node /var/app/Vidbot-V2/dist/vidbot.js --input /var/www/html/clients/10518/video/D5EFE6AE-3CF3-6279-30C0-81FF70FF5CA8.json --log debug > /var/www/html/clients/10518/video/D5EFE6AE-3CF3-6279-30C0-81FF70FF5CA8.log 22:52:59 - Generated Video File./var/www/html/clients/10518/video/D5EFE6AE-3CF3-6279-30C0-81FF70FF5CA8.mp4 22:52:59 - INFO:: Generated Video File./var/www/html/clients/10518/video/D5EFE6AE-3CF3-6279-30C0-81FF70FF5CA8.mp4 22:52:59 - INFO:: Sprite & Bookmark Option(s) not enabled 22:52:59 - ================VIDEO JSON GEN END RETURN VALUE : 1 ============== 22:52:59 - ================CREATE VIDEO END =========== ERROR : { 0} 22:52:59 - Start Time:0 22:52:59 - 0##1.57##Come test drive 22:52:59 - 1.57##3.45##The 2024 22:52:59 - 3.45##4.39##Sportage 22:52:59 - 4.39##12.96##With its sleek and stylish exterior and its roomy feature-laden interior the Sportage both looks good and performs well on the road. 22:52:59 - 12.96##15.78##and it is priced below $40000 22:52:59 - 15.78##18.39##This Vehicle has less than 100 miles 22:52:59 - 18.39##23.04##This beauty will even make your house keys jealous. Drive it today! 22:52:59 - Curl Response - {"code":200,"status":"VTT Updated"} 22:52:59 - Contents - /postVTTString/ - VTT Updated - 200 0##1.57##Come test drive|||1.57##3.45##The 2024|||3.45##4.39##Sportage|||4.39##12.96##With its sleek and stylish exterior and its roomy feature-laden interior the Sportage both looks good and performs well on the road.|||12.96##15.78##and it is priced below $40000|||15.78##18.39##This Vehicle has less than 100 miles|||18.39##23.04##This beauty will even make your house keys jealous. Drive it today! 22:52:59 - VIDEO JSON GEN RETURN VALUE: - 0 22:52:59 - update message_remote_queue set error=0, video = 1, error_message = concat( "", error_message ), process_start = '2024-06-15 22:47:37', audio_process_start = '2024-06-15 22:47:37', audio_process_end = '2024-06-15 22:47:40', video_process_start ='2024-06-15 22:47:40', video_process_end='2024-06-15 22:52:59' where queue_id = 284563 22:52:59 - ==93 - 1 Elapsed Time 321.85 == 22:52:59 - update queue_status set stat_last_update=NOW(), type_cnt = 93, type_loop_cnt = 1586 where type_val = 'V4' 22:52:59 - Curl Response - {"code":200,"status":"Success:PostServerProcessDetails Posted For IP [209.59.156.167] and Process [V4]"} 22:52:59 - Contents - /postServerProcessDetails/ - Success:PostServerProcessDetails Posted For IP [209.59.156.167] and Process [V4] - 200 22:52:59 - update queue_status set stat_last_update=NOW(), type_cnt = 93, type_loop_cnt = 1586 where type_val = 'V4' 22:52:59 - Curl Response - {"code":200,"status":"Success:PostServerProcessDetails Posted For IP [209.59.156.167] and Process [V4]"} 22:52:59 - Contents - /postServerProcessDetails/ - Success:PostServerProcessDetails Posted For IP [209.59.156.167] and Process [V4] - 200 22:52:59 - ========== 93 - 603 mins 389.5947311828 Video Process / Start:2024-06-15 06:29:02 / Mod:3/16====== 22:53:00 - Fetching Video Jobs Mod Val : 3 Mod Limit : 16 Queue ID : 0 22:53:00 - ========select * from message_remote_queue, hvo_data where queue_id%16 = 3 and image = 1 and video = 0 and error = 0 and hvo_queue_id = queue_id order by high_priority_row desc, queue_id asc limit 1==================count =1 22:53:00 - Processing Auto VideoFKEY:D714E41D-BE73-57C5-31CB-25FD29CE3034 - QueueID:284579 22:53:00 - CLIENT INFO CLIENT_FK : 056859ED-DEAC-CBBA-4E7D-FA6805058B26 ,CLIENT_INFO :{"client_id":"10518","client_fk":"056859ED-DEAC-CBBA-4E7D-FA6805058B26","client_acc_id":"34","client_name":"Quirk Kia of Manchester","client_desc":"","client_color":"000000","client_player_color":"","client_textcolor":"","client_tts_text":"","client_tts_options":"","client_inactive":"0","client_createdate":"2019-08-22 10:45:10","client_enddate":"","client_update":"2020-02-20 16:03:16","client_email_forward":"quirkkiamanchester@eleadtrack.net","client_dealer_id":"10107","client_franchise_number":"","client_salesperson_name":"","client_address":"1300 S. Porter St.","client_city":"Manchester","client_state":"New Hampshire","client_zip":"03103","client_phone":"603-836-7600","client_url":"https://www.quirkkianh.com/","client_fb_id":"","client_km":"0","client_special_price":"0","client_demo":"0","client_utube_flag":"0","client_cvo":"0","client_tts":"0","client_live_uv":"0","client_live_overlay":"2","client_av":"0","client_gv":"0","client_af":"0","client_video_email":"0","client_carfax":"0","client_intro":"0","client_outro":"0","client_slider":"0","client_music_id":"36","client_ei":"0","client_tts_vm":"2","client_hvo":"1","client_mobile":"0","client_portal":"0","client_instavid":"0","client_new_stock_video":"0","client_vidmagnet":"0","client_auto_play":"0","client_cpo":"1","client_vid_stab":"0","client_vp":"0","client_xl":"0","client_carstory":"0","client_360_player":"0","client_ece":"0","client_capture_video":"0","client_new_cvo":"0","client_pip":"1","client_account_id":"1","client_crm_email":"","client_crm_dealer_id":"","client_crm_dealer_key":"","client_archive":"0","client_damage_photo":"0","client_package":"1","client_video_size":"HDLARGE","client_video_style":"RANDOM","client_lat_lng":"","client_comments":"","SHOW_CARSTORY":"0"} 22:53:00 - Rest Call: /client/videoDetails/056859ED-DEAC-CBBA-4E7D-FA6805058B26?video_key=D714E41D-BE73-57C5-31CB-25FD29CE3034 22:53:00 - Curl Response - {"video_id":"49334662","video_fk":"D714E41D-BE73-57C5-31CB-25FD29CE3034","vehicle_id":"43463707","video_client_id":"10518","video_script":"

delivers 39 highway mpg and 28 city mpg this kia forte delivers a regular unleaded i-4 2.0 l\/122 engine powering this variable transmission. option group 010 -inc: standard equipment, carpet floor mats, black, cloth seat trim. <\/p>

this kia forte comes equipped with these options <\/strong> aurora black, window grid antenna, wheels: 16 x 6.5j alloy, variable intermittent wipers, urethane gear shifter material, trunk rear cargo access, trip computer, transmission: intelligent variable -inc: sportmatic and drive mode select (dms) w\/sport and comfort indicator, torsion beam rear suspension w\/coil springs, tires: p205\/55r16 lrr all-season. <\/p>

stop by today <\/strong> test drive this must-see, must-drive, must-own beauty today at quirk kia nh, 1300 south porter street, manchester, nh 03103.<\/p>","video_tts_script":"","video_flv":"\/avavids\/1\/clients\/10518\/video\/D714E41D-BE73-57C5-31CB-25FD29CE3034.mp4","video_create_time":"2024-06-15 22:16:11","video_update_time":"2024-06-15 22:16:11","audio_length":"","video_options":"fuel type: gasoline fuel, standart body: , doors: 4, transmission: variable, trim: lxs in-transit","video_custom_flag":"0","video_title":"2024 Kia Forte","video_local_title":"2024 Kia Forte","video_frames":"0","video_image_url":"\/avavids\/1\/clients\/10518\/images\/D714E41D-BE73-57C5-31CB-25FD29CE3034_","video_pin_id":"0","video_tts_flag":"1","video_hvo_flag":"0","video_share":"1","video_default_flag":"1","video_imgsrc_urls":"https:\/\/images.dealerfire.com\/vehicles\/10107\/3KPF24AD4RE806408\/71fb69ef7733c090ccc1c41720ec859c.jpg,https:\/\/images.dealerfire.com\/vehicles\/10107\/3KPF24AD4RE806408\/9e28f8a782b3efb3a9428175d36ad51a.jpg,https:\/\/images.dealerfire.com\/vehicles\/10107\/3KPF24AD4RE806408\/b327a650ee6df9abb324bbfbb47b6429.jpg,https:\/\/images.dealerfire.com\/vehicles\/10107\/3KPF24AD4RE806408\/f56afd1eabc59a262873dbb171786368.jpg,https:\/\/images.dealerfire.com\/vehicles\/10107\/3KPF24AD4RE806408\/9cd989251ce698ddda2b01fa0da3550c.jpg,https:\/\/images.dealerfire.com\/vehicles\/10107\/3KPF24AD4RE806408\/e22ba8dc99a752b06692ae9515426390.jpg,https:\/\/images.dealerfire.com\/vehicles\/10107\/3KPF24AD4RE806408\/bcc7775d8a4014976e877333d14e818f.jpg,https:\/\/images.dealerfire.com\/vehicles\/10107\/3KPF24AD4RE806408\/f2f75090391205a910091cbdbfe34c62.jpg,https:\/\/images.dealerfire.com\/vehicles\/10107\/3KPF24AD4RE806408\/529dbf06f5b53029a64155f9d7100295.jpg,https:\/\/images.dealerfire.com\/vehicles\/10107\/3KPF24AD4RE806408\/2e220e9193dc52a57d8770fb5e88a2ac.jpg,https:\/\/images.dealerfire.com\/vehicles\/10107\/3KPF24AD4RE806408\/a73e6357ee4dcf0d943ef35bc7991bbd.jpg,https:\/\/images.dealerfire.com\/vehicles\/10107\/3KPF24AD4RE806408\/41bdf2787c4668df9b119a26df80a407.jpg,https:\/\/images.dealerfire.com\/vehicles\/10107\/3KPF24AD4RE806408\/9c775ad30497fc9a71dc7598c956a6ff.jpg,https:\/\/images.dealerfire.com\/vehicles\/10107\/3KPF24AD4RE806408\/8031f96401ff70732cd96a5cc3cc1264.jpg,https:\/\/images.dealerfire.com\/vehicles\/10107\/3KPF24AD4RE806408\/7643b56d4818ffde3b46c656baad6ee8.jpg,https:\/\/images.dealerfire.com\/vehicles\/10107\/3KPF24AD4RE806408\/02d899d77ab7f27fe76d71ed0c8720a8.jpg,https:\/\/images.dealerfire.com\/vehicles\/10107\/3KPF24AD4RE806408\/85d84ff575049b181a2e112351024cf1.jpg,https:\/\/images.dealerfire.com\/vehicles\/10107\/3KPF24AD4RE806408\/60778b705b725e45fe2e4b808c6b6b95.jpg,https:\/\/images.dealerfire.com\/vehicles\/10107\/3KPF24AD4RE806408\/1afa3d9cdffbabaf253c39965806925b.jpg","video_thumbnail_url":"","video_rendering_flag":"0","video_error_rendering":"","video_view_cnt":"0","video_delete_flag":"0","video_delete_time":"","video_batch_proc":"1","video_meta_data":"","video_custom_default":"0","video_external_flv":"","video_external_wflv":"","video_external_iflv":"","video_custom_uploaded":"0","vehicle_client_id":"10518","vehicle_fkey":"151F1851-AA73-A489-A6C5-58023A94112D","vehicle_uid":"57143429","vehicle_vin":"3KPF24AD4RE806408","vehicle_stock":"KS9581","vehicle_year":"2024","vehicle_make":"Kia","vehicle_model":"Forte","vehicle_trim":"LXS In-Transit","vehicle_price":"22115","vehicle_mileage":"3","vehicle_int_color":"black","vehicle_ext_color":"black","vehicle_body_type":"4dr car","vehicle_listing_type":"New","vehicle_citympg":"","vehicle_hwympg":"","vehicle_combmpg":"","vehicle_cylinders":"4","vehicle_engine_size":"2.0","vehicle_trans":"M","vehicle_drivetrain":"FWD","vehicle_passengers":"0","vehicle_doors":"0","vehicle_certified":"0","vehicle_special":"0","vehicle_options":"fuel type: gasoline fuel, standart body: , doors: 4, transmission: variable, trim: lxs in-transit","vehicle_desc":"

delivers 39 highway mpg and 28 city mpg this kia forte delivers a regular unleaded i-4 2.0 l\/122 engine powering this variable transmission. option group 010 -inc: standard equipment, carpet floor mats, black, cloth seat trim. <\/p>

this kia forte comes equipped with these options <\/strong> aurora black, window grid antenna, wheels: 16 x 6.5j alloy, variable intermittent wipers, urethane gear shifter material, trunk rear cargo access, trip computer, transmission: intelligent variable -inc: sportmatic and drive mode select (dms) w\/sport and comfort indicator, torsion beam rear suspension w\/coil springs, tires: p205\/55r16 lrr all-season. <\/p>

stop by today <\/strong> test drive this must-see, must-drive, must-own beauty today at quirk kia nh, 1300 south porter street, manchester, nh 03103.<\/p>","vehicle_chrome_style_id":"","vehicle_model_num":"","vehicle_stock_video":"0","vehicle_img_cnt":"0","veh_more_info":"","vehicle_create_date":"2024-06-15 22:16:11","vehicle_update_date":"2024-06-15 22:16:11","vehicle_md5":"0650f9eab63eead9b8078588e533404c","vehicle_status":"N","vehicle_add":"0","vehicle_delete_flag":"0","vehicle_delete_time":""} 22:53:00 - Rest Call: /client/getAudioVideoConfig/056859ED-DEAC-CBBA-4E7D-FA6805058B26?listing_type=New&video_type=Auto&certified=0&vehicle_make=Kia 22:53:00 - Curl Response - {"BG_MUSIC":"Jazz_30","THEME_BG_COLOR":"ffffff","THEME_ACCENTS_COLOR":"047ec1","THEME_FONT_COLOR":"000000","THEME_FONT":"Din","THEME_STYLE":"Ren","BG_VOL_LEVEL":"0.25","AUDIO_VO":"","VIDEO_SIZE":"VIDEO_LARGE","CUSTOM_INTRO":"","CUSTOM_OUTRO":"","THEME_KEY":"0_0_Auto_Default_0_ALL","THEME_RANK":"2","THEME_CONFIG":"GLOBAL_CONFIG","OLD_BG_STYLE":"0"} 22:53:00 - Return from CheckProfileVal function::0 - DISABLE_PRICE - YES 22:53:00 - Return from CheckProfileVal function::0 - DISABLE_MILEAGE - YES 22:53:00 - Return from CheckProfileVal function::0 - DISABLE_CARSTORY - YES 22:53:00 - Config Information for D714E41D-BE73-57C5-31CB-25FD29CE3034 - Width:640 - CPO:1/0 - CF:0 - CS:0 - Intro:0 - Outro:0 - Ovleray:2 -THEME:0_0_Auto_Default_0_ALL 22:53:00 - https://images.dealerfire.com/vehicles/10107/3KPF24AD4RE806408/71fb69ef7733c090ccc1c41720ec859c.jpg /var/www/html/clients/10518/images/D714E41D-BE73-57C5-31CB-25FD29CE3034_1.jpg 22:53:00 - https://images.dealerfire.com/vehicles/10107/3KPF24AD4RE806408/9e28f8a782b3efb3a9428175d36ad51a.jpg /var/www/html/clients/10518/images/D714E41D-BE73-57C5-31CB-25FD29CE3034_2.jpg 22:53:00 - https://images.dealerfire.com/vehicles/10107/3KPF24AD4RE806408/b327a650ee6df9abb324bbfbb47b6429.jpg /var/www/html/clients/10518/images/D714E41D-BE73-57C5-31CB-25FD29CE3034_3.jpg 22:53:00 - https://images.dealerfire.com/vehicles/10107/3KPF24AD4RE806408/f56afd1eabc59a262873dbb171786368.jpg /var/www/html/clients/10518/images/D714E41D-BE73-57C5-31CB-25FD29CE3034_4.jpg 22:53:00 - https://images.dealerfire.com/vehicles/10107/3KPF24AD4RE806408/9cd989251ce698ddda2b01fa0da3550c.jpg /var/www/html/clients/10518/images/D714E41D-BE73-57C5-31CB-25FD29CE3034_5.jpg 22:53:00 - https://images.dealerfire.com/vehicles/10107/3KPF24AD4RE806408/e22ba8dc99a752b06692ae9515426390.jpg /var/www/html/clients/10518/images/D714E41D-BE73-57C5-31CB-25FD29CE3034_6.jpg 22:53:00 - https://images.dealerfire.com/vehicles/10107/3KPF24AD4RE806408/bcc7775d8a4014976e877333d14e818f.jpg /var/www/html/clients/10518/images/D714E41D-BE73-57C5-31CB-25FD29CE3034_7.jpg 22:53:00 - https://images.dealerfire.com/vehicles/10107/3KPF24AD4RE806408/f2f75090391205a910091cbdbfe34c62.jpg /var/www/html/clients/10518/images/D714E41D-BE73-57C5-31CB-25FD29CE3034_8.jpg 22:53:00 - https://images.dealerfire.com/vehicles/10107/3KPF24AD4RE806408/529dbf06f5b53029a64155f9d7100295.jpg /var/www/html/clients/10518/images/D714E41D-BE73-57C5-31CB-25FD29CE3034_9.jpg 22:53:00 - https://images.dealerfire.com/vehicles/10107/3KPF24AD4RE806408/2e220e9193dc52a57d8770fb5e88a2ac.jpg /var/www/html/clients/10518/images/D714E41D-BE73-57C5-31CB-25FD29CE3034_10.jpg 22:53:00 - https://images.dealerfire.com/vehicles/10107/3KPF24AD4RE806408/a73e6357ee4dcf0d943ef35bc7991bbd.jpg /var/www/html/clients/10518/images/D714E41D-BE73-57C5-31CB-25FD29CE3034_11.jpg 22:53:00 - https://images.dealerfire.com/vehicles/10107/3KPF24AD4RE806408/41bdf2787c4668df9b119a26df80a407.jpg /var/www/html/clients/10518/images/D714E41D-BE73-57C5-31CB-25FD29CE3034_12.jpg 22:53:00 - https://images.dealerfire.com/vehicles/10107/3KPF24AD4RE806408/9c775ad30497fc9a71dc7598c956a6ff.jpg /var/www/html/clients/10518/images/D714E41D-BE73-57C5-31CB-25FD29CE3034_13.jpg 22:53:00 - https://images.dealerfire.com/vehicles/10107/3KPF24AD4RE806408/8031f96401ff70732cd96a5cc3cc1264.jpg /var/www/html/clients/10518/images/D714E41D-BE73-57C5-31CB-25FD29CE3034_14.jpg 22:53:00 - https://images.dealerfire.com/vehicles/10107/3KPF24AD4RE806408/7643b56d4818ffde3b46c656baad6ee8.jpg /var/www/html/clients/10518/images/D714E41D-BE73-57C5-31CB-25FD29CE3034_15.jpg 22:53:00 - https://images.dealerfire.com/vehicles/10107/3KPF24AD4RE806408/02d899d77ab7f27fe76d71ed0c8720a8.jpg /var/www/html/clients/10518/images/D714E41D-BE73-57C5-31CB-25FD29CE3034_16.jpg 22:53:00 - https://images.dealerfire.com/vehicles/10107/3KPF24AD4RE806408/85d84ff575049b181a2e112351024cf1.jpg /var/www/html/clients/10518/images/D714E41D-BE73-57C5-31CB-25FD29CE3034_17.jpg 22:53:00 - https://images.dealerfire.com/vehicles/10107/3KPF24AD4RE806408/60778b705b725e45fe2e4b808c6b6b95.jpg /var/www/html/clients/10518/images/D714E41D-BE73-57C5-31CB-25FD29CE3034_18.jpg 22:53:00 - https://images.dealerfire.com/vehicles/10107/3KPF24AD4RE806408/1afa3d9cdffbabaf253c39965806925b.jpg /var/www/html/clients/10518/images/D714E41D-BE73-57C5-31CB-25FD29CE3034_19.jpg 22:53:00 - Image Count 19 22:53:00 - Setting Female English VO Constants | 0 | 0 22:53:00 - ====HVO Value:1, Audio Value:0=== 22:53:00 - Return from CheckProfileVal function::0 - AUDIO_INTRO - 22:53:00 - Return from CheckProfileVal function::0 - AUDIO_OUTRO - 22:53:00 - ================Process HVO=========== 1 22:53:00 - ================CLIENT SELECT TTS VM VALUE=========== 2 22:53:00 - 2 - 2 - /var/app/video_pre_processor/assets/hvo/ 22:53:00 - Setting Female English VO Constants | 0 | 2 22:53:01 - HVO Soap Call Method - AudoListWMIE 22:53:01 - Getting Text For Audio Files 22:53:01 - HVO Soap Call Method - AudoListTWMIE 22:53:01 - Getting Text For Audio Files emotionalFile 19 22:53:01 - HVO Soap Call Method - GetTTScripts 22:53:01 - Getting Text For Audio Files introEmotionalFile 21 22:53:01 - HVO Soap Call Method - GetTTScripts 22:53:01 - Getting Text For Audio Files scriptFile 23 22:53:01 - HVO Soap Call Method - GetTTScripts 22:53:01 - ================TTS VM VALUE=========== 2 22:53:01 - ================GetVOFiles=========== {"OptionFiles":[{"option_str":"* General Options Intro","option_file":"http:\/\/hvo.flickfusion.net\/audio\/options\/options_fe_audio_file_55.mp3","option_saftey":1}],"yearFile":"http:\/\/hvo.flickfusion.net\/audio\/year\/year_fe_audio_file_66.mp3","makeFile":"http:\/\/hvo.flickfusion.net\/audio\/makes\/make_name_fe_audio_file_23.mp3","modelFile":"http:\/\/hvo.flickfusion.net\/audio\/mdlnames\/model_name_fe_audio_file_171.mp3","modelHighlightFile":"http:\/\/hvo.flickfusion.net\/audio\/models\/model_fe_audio_file_171.mp3","styleFile":"","bodytypeFile":"","transFile":"","engineFile":"http:\/\/hvo.flickfusion.net\/audio\/domain_enginesize\/enginesize_fe_audio_file_4.mp3","cylindersFile":"http:\/\/hvo.flickfusion.net\/audio\/domain_cylinders\/cylinder_fe_audio_file_4.mp3","driveTrainFile":"http:\/\/hvo.flickfusion.net\/audio\/domain_drivetrain\/drivetrain_fe_audio_file_1.mp3","priceFile":"http:\/\/hvo.flickfusion.net\/audio\/prices\/price_fe_audio_file_12.mp3","mileageFile":"http:\/\/hvo.flickfusion.net\/audio\/mileage\/miles_fe_audio_file_33.mp3","carfaxFile":"","emotionalFile":"http:\/\/hvo.flickfusion.net\/audio\/emotional\/emotional_fe_audio_file_19.mp3","introEmotionalFile":"http:\/\/hvo.flickfusion.net\/audio\/emotional\/ie_fe_audio_file_21.mp3","scriptFile":"http:\/\/hvo.flickfusion.net\/audio\/domain_scripts\/script_fe_audio_file_23.mp3","statusCode":"1","statusMessage":"Audio Files Sent"} 22:53:01 - /var/www/html/clients/10518/audio/D714E41D-BE73-57C5-31CB-25FD29CE3034.wav 22:53:01 - ================Process HVO SOAP CALL CMD=========== /usr/bin/sox STATUS CODE 1 22:53:01 - /var/app/video_pre_processor/assets/hvo/ie_fe_audio_file_21.wav PlayTime:2.85 22:53:01 - /var/app/video_pre_processor/assets/hvo/year_fe_audio_file_66.wav PlayTime:1.88 22:53:01 - /var/app/video_pre_processor/assets/hvo/model_name_fe_audio_file_171.wav PlayTime:0.76 22:53:01 - /var/app/video_pre_processor/assets/hvo/model_fe_audio_file_171.wav PlayTime:12.41 22:53:01 - Skipping VTT for BODY - bodytypeFile 22:53:01 - /var/app/video_pre_processor/assets/hvo/price_fe_audio_file_12.wav PlayTime:2.95 22:53:01 - KM Check : 3 | 0 22:53:01 - /var/app/video_pre_processor/assets/hvo/miles_fe_audio_file_33.wav PlayTime:2.61 22:53:01 - Curl Response - {"error":"Vehicle options not found for vehicle key[151F1851-AA73-A489-A6C5-58023A94112D]"} 22:53:01 - ============={"error":"Vehicle options not found for vehicle key[151F1851-AA73-A489-A6C5-58023A94112D]"}=============== 22:53:01 - Skipping Option Processing - Count:1 22:53:01 - Skipping VTT for CARFAX - carfaxFile 22:53:01 - /var/app/video_pre_processor/assets/hvo/emotional_fe_audio_file_19.wav PlayTime:7.76 22:53:01 - /usr/bin/sox /var/app/video_pre_processor/assets/hvo/ie_fe_audio_file_21.wav /var/app/video_pre_processor/assets/hvo/year_fe_audio_file_66.wav /var/app/video_pre_processor/assets/hvo/model_name_fe_audio_file_171.wav /var/app/video_pre_processor/assets/hvo/model_fe_audio_file_171.wav /var/app/video_pre_processor/assets/hvo/price_fe_audio_file_12.wav /var/app/video_pre_processor/assets/hvo/miles_fe_audio_file_33.wav /var/app/video_pre_processor/assets/hvo/emotional_fe_audio_file_19.wav /var/www/html/clients/10518/audio/D714E41D-BE73-57C5-31CB-25FD29CE3034_temp1.wav 22:53:01 - Return from CheckProfileVal function::0 - REPLACE_FULL_AUDIO - 22:53:01 - Return from CheckProfileVal function::0 - REPLACE_FULL_AUDIO_NEW - 22:53:01 - ========REPALCE AUDIO TRACK LISTING TYPE new \ n USED VALUE : 0 NEW AUDIO VALUE : { 0} ============== 22:53:01 - Video Length for audio merge: 0 22:53:01 - /root/bin/ffmpeg -i /var/www/html/clients/10518/audio/D714E41D-BE73-57C5-31CB-25FD29CE3034.wav -f mp3 -ar 44100 -ab 320 -ac 2 -y /var/www/html/clients/10518/audio/D714E41D-BE73-57C5-31CB-25FD29CE3034.mp3 ffmpeg version N-109053-g9b13078c6a Copyright (c) 2000-2022 the FFmpeg developers built with gcc 5.4.0 (GCC) configuration: --prefix=/root/ffmpeg_build --pkg-config-flags=--static --extra-cflags=-I/root/ffmpeg_build/include --extra-ldflags=-L/root/ffmpeg_build/lib --extra-libs=-lpthread --extra-libs=-lm --bindir=/root/bin --enable-gpl --enable-libfdk_aac --enable-libfreetype --enable-libmp3lame --enable-libopus --enable-libvpx --enable-libx264 --enable-openssl --enable-libx265 --enable-nonfree --enable-libvidstab libavutil 57. 42.100 / 57. 42.100 libavcodec 59. 52.101 / 59. 52.101 libavformat 59. 34.101 / 59. 34.101 libavdevice 59. 8.101 / 59. 8.101 libavfilter 8. 50.100 / 8. 50.100 libswscale 6. 8.112 / 6. 8.112 libswresample 4. 9.100 / 4. 9.100 libpostproc 56. 7.100 / 56. 7.100 Guessed Channel Layout for Input Stream #0.0 : stereo Input #0, wav, from '/var/www/html/clients/10518/audio/D714E41D-BE73-57C5-31CB-25FD29CE3034.wav': Duration: 00:00:31.22, bitrate: 1411 kb/s Stream #0:0: Audio: pcm_s16le ([1][0][0][0] / 0x0001), 44100 Hz, 2 channels, s16, 1411 kb/s Stream mapping: Stream #0:0 -> #0:0 (pcm_s16le (native) -> mp3 (libmp3lame)) Press [q] to stop, [?] for help [libmp3lame @ 0x47ca480] Bitrate 320 is extremely low, maybe you mean 320k The bitrate parameter is set too low. It takes bits/s as argument, not kbits/s Output #0, mp3, to '/var/www/html/clients/10518/audio/D714E41D-BE73-57C5-31CB-25FD29CE3034.mp3': Metadata: TSSE : Lavf59.34.101 Stream #0:0: Audio: mp3, 44100 Hz, stereo, s16p, 0 kb/s Metadata: encoder : Lavc59.52.101 libmp3lame size= 0kB time=-577014:32:22.77 bitrate= -0.0kbits/s speed=N/A size= 97kB time=00:00:06.21 bitrate= 128.3kbits/s speed=12.4x size= 197kB time=00:00:12.61 bitrate= 128.1kbits/s speed=12.6x size= 256kB time=00:00:19.30 bitrate= 108.6kbits/s speed=12.9x size= 256kB time=00:00:25.88 bitrate= 81.0kbits/s speed=12.9x size= 488kB time=00:00:31.19 bitrate= 128.3kbits/s speed= 13x video:0kB audio:488kB subtitle:0kB other streams:0kB global headers:0kB muxing overhead: 0.050612% 22:53:03 - /var/app/video_pre_processor/assets/vidbot/_files/audio/Jazz_30.mp3 PlayTime:751.67 22:53:03 - Using Jazz_30.mp3 - /var/app/video_pre_processor/assets/vidbot/_files/audio/Jazz_30.mp3 22:53:03 - BG MUSIC FILE /var/app/video_pre_processor/assets/vidbot/_files/audio/Jazz_30.mp3 22:53:03 - BG AUDIO CLIENT OVELAY VALUE : 2 22:53:03 - /var/www/html/clients/10518/audio/D714E41D-BE73-57C5-31CB-25FD29CE3034.wav PlayTime:31.22 22:53:03 - VParent - VOLEN:33.22 | /var/www/html/clients/10518/audio/D714E41D-BE73-57C5-31CB-25FD29CE3034.mp3 | /var/app/video_pre_processor/assets/vidbot/_files/audio/Jazz_30.mp3 | /var/www/html/clients/10518/audio/D714E41D-BE73-57C5-31CB-25FD29CE3034.wav 22:53:03 - AUDIO PROCESS RETURN VALUE: - 1 22:53:03 - update message_remote_queue set video_process_start = '2024-06-15 22:53:03' where queue_id = 284579 22:53:03 - CLIENT INFO DATA {"client_id":"10518","client_fk":"056859ED-DEAC-CBBA-4E7D-FA6805058B26","client_acc_id":"34","client_name":"Quirk Kia of Manchester","client_desc":"","client_color":"000000","client_player_color":"","client_textcolor":"","client_tts_text":"","client_tts_options":"","client_inactive":"0","client_createdate":"2019-08-22 10:45:10","client_enddate":"","client_update":"2020-02-20 16:03:16","client_email_forward":"quirkkiamanchester@eleadtrack.net","client_dealer_id":"10107","client_franchise_number":"","client_salesperson_name":"","client_address":"1300 S. Porter St.","client_city":"Manchester","client_state":"New Hampshire","client_zip":"03103","client_phone":"603-836-7600","client_url":"https:\/\/www.quirkkianh.com\/","client_fb_id":"","client_km":"0","client_special_price":"0","client_demo":"0","client_utube_flag":"0","client_cvo":"0","client_tts":"0","client_live_uv":"0","client_live_overlay":"2","client_av":"0","client_gv":"0","client_af":"0","client_video_email":"0","client_carfax":"0","client_intro":"0","client_outro":"0","client_slider":"0","client_music_id":"36","client_ei":"0","client_tts_vm":"2","client_hvo":"1","client_mobile":"0","client_portal":"0","client_instavid":"0","client_new_stock_video":"0","client_vidmagnet":"0","client_auto_play":"0","client_cpo":"1","client_vid_stab":"0","client_vp":"0","client_xl":"0","client_carstory":"0","client_360_player":"0","client_ece":"0","client_capture_video":"0","client_new_cvo":"0","client_pip":"1","client_account_id":"1","client_crm_email":"","client_crm_dealer_id":"","client_crm_dealer_key":"","client_archive":"0","client_damage_photo":"0","client_package":"1","client_video_size":"HDLARGE","client_video_style":"RANDOM","client_lat_lng":"","client_comments":"","SHOW_CARSTORY":"0"} 22:53:03 - Map Exists: /var/www/html/clients/10518/library/map.jpg 22:53:03 - Checking CUSTOM_INTRO 22:53:03 - Checking CUSTOM_OUTRO 22:53:03 - ================CREATE VIDEO START =========== 22:53:03 - ================VIDEO JSON GEN START ============== 22:53:03 - Video Size 360 22:53:03 - ===========Video Theme font ================Dinot 22:53:03 - ==========Video fk : ==============D714E41D-BE73-57C5-31CB-25FD29CE3034 22:53:03 - ==============AUDIO VIDEO CONFIG : =========={"BG_MUSIC":"Jazz_30","THEME_BG_COLOR":"ffffff","THEME_ACCENTS_COLOR":"047ec1","THEME_FONT_COLOR":"000000","THEME_FONT":"Dinot","THEME_STYLE":"Ren","BG_VOL_LEVEL":"0.25","AUDIO_VO":"","VIDEO_SIZE":"VIDEO_LARGE","CUSTOM_INTRO":"","CUSTOM_OUTRO":"","THEME_KEY":"0_0_Auto_Default_0_ALL","THEME_RANK":"2","THEME_CONFIG":"GLOBAL_CONFIG","OLD_BG_STYLE":"0"} 22:53:03 - CLIENT FKEY : 056859ED-DEAC-CBBA-4E7D-FA6805058B26 VIDEO FKEY : D714E41D-BE73-57C5-31CB-25FD29CE3034 VEHICLE FKEY : 22:53:03 - INFO:: Video Type:SS Video Size:360 22:53:03 - Return from CheckProfileVal function::0 - DISPLAY_MILEAGE - NO 22:53:03 - Return from CheckProfileVal function::0 - DISPLAY_MILEAGE - NO 22:53:03 - Return from CheckProfileVal function::0 - DISPLAY_PRICE - NO 22:53:03 - Return from CheckProfileVal function::0 - DISPLAY_PRICE - NO 22:53:03 - ==================ClipsGen START ===================== 22:53:03 - Return from CheckProfileVal function::0 - AUDIO_VO - NO_VO 22:53:03 - Return from CheckProfileVal function::0 - AUDIO_VO - NO_VO 22:53:03 - Return from CheckProfileVal function::0 - AUDIO_VO - LIVE_VO 22:53:03 - Return from CheckProfileVal function::0 - AUDIO_VO - LIVE_VO 22:53:03 - Return from CheckProfileVal function::0 - DISPLAY_OPTIONS - NO 22:53:03 - Return from CheckProfileVal function::0 - DISPLAY_OPTIONS - NO 22:53:03 - Return from CheckProfileVal function::0 - DISPLAY_PRICE - NO 22:53:03 - Return from CheckProfileVal function::0 - DISPLAY_PRICE - NO 22:53:03 - Return from CheckProfileVal function::0 - DISABLE_PRICE - YES 22:53:03 - Return from CheckProfileVal function::0 - DISPLAY_MILEAGE - NO 22:53:03 - Return from CheckProfileVal function::0 - DISPLAY_MILEAGE - NO 22:53:03 - Return from CheckProfileVal function::0 - DISPLAY_INFO - NO 22:53:03 - Return from CheckProfileVal function::0 - DISPLAY_INFO - NO 22:53:03 - Return from CheckProfileVal function::0 - DISPLAY_TITLE_WSNAME - NO 22:53:03 - Return from CheckProfileVal function::0 - DISPLAY_TITLE_WSNAME - NO 22:53:03 - Return from CheckProfileVal function::0 - DISPLAY_ALL_OVERLAYS - NO 22:53:03 - Return from CheckProfileVal function::0 - DISPLAY_ALL_OVERLAYS - NO 22:53:03 - Return from CheckProfileVal function::0 - DISPLAY_MAP - NO 22:53:03 - Return from CheckProfileVal function::0 - DISPLAY_MAP - NO 22:53:03 - =========THEME STYLE-FONT :Ren - Din ============ 22:53:03 - /usr/bin/sox /var/app/video_pre_processor/assets/music/silence_3.wav /var/www/html/clients/10518/audio/D714E41D-BE73-57C5-31CB-25FD29CE3034.wav /var/www/html/clients/10518/audio/D714E41D-BE73-57C5-31CB-25FD29CE3034_info_audio.wav 22:53:03 - /var/app/video_pre_processor/assets/vidbot/_files/audio/Jazz_30.mp3 PlayTime:751.67 22:53:03 - Return from CheckProfileVal function::0 - BG_MUSIC_OVER_ALL_CLIPS - YES 22:53:03 - Return from CheckProfileVal function::0 - BG_MUSIC_OVER_ALL_CLIPS - YES 22:53:03 - AUDIO TIMER: {"INTRO":0,"YEAR":2.85,"MODEL":4.73,"HIGH":5.49,"PRICE":17.9,"MILE":20.849999999999998,"ENDFILE":23.459999999999997} 22:53:03 - ===================ClipsGen END ======================== 22:53:03 - INFO:: VIDEO JSON : "D714E41D-BE73-57C5-31CB-25FD29CE3034.json" 22:53:03 - node /var/app/Vidbot-V2/dist/vidbot.js --input /var/www/html/clients/10518/video/D714E41D-BE73-57C5-31CB-25FD29CE3034.json --log debug > /var/www/html/clients/10518/video/D714E41D-BE73-57C5-31CB-25FD29CE3034.log