20:37:31 - Return from CheckProfileVal function::0 - DISPLAY_TITLE_WSNAME - NO
20:37:31 - Return from CheckProfileVal function::0 - DISPLAY_TITLE_WSNAME - NO
20:37:31 - Return from CheckProfileVal function::0 - DISPLAY_ALL_OVERLAYS - NO
20:37:31 - Return from CheckProfileVal function::0 - DISPLAY_ALL_OVERLAYS - NO
20:37:31 - Return from CheckProfileVal function::0 - DISPLAY_MAP - NO
20:37:31 - Return from CheckProfileVal function::0 - DISPLAY_MAP - NO
20:37:31 - =========THEME STYLE-FONT :Ren - Din  ============
20:37:31 - /usr/bin/sox  /var/app/video_pre_processor/assets/music/silence_3.wav /var/www/html/clients/102113/audio/EFAE5173-B0C4-974B-2EB0-F902D5E0AB94.wav /var/www/html/clients/102113/audio/EFAE5173-B0C4-974B-2EB0-F902D5E0AB94_info_audio.wav
20:37:31 - /var/app/video_pre_processor/assets/vidbot/_files/audio/Groove-4.mp3 PlayTime:201.98
20:37:31 - Return from CheckProfileVal function::0 - BG_MUSIC_OVER_ALL_CLIPS - YES
20:37:31 - Return from CheckProfileVal function::0 - BG_MUSIC_OVER_ALL_CLIPS - YES
20:37:31 - AUDIO TIMER: 
{"INTRO":0,"YEAR":2.69,"MODEL":4.62,"HIGH":5.54,"PRICE":15.89,"MILE":19.05,"ALL_OPTIONS":{"* General Options Intro":22.47,"Remote Engine Start":24.82,"Steering wheel audio controls":26.26,"Power Liftgate":28.43,"Power Passenger Seat":29.63,"Traction Control":30.96,"Stability Control":32.27,"Keyless Entry":33.52,"Back-Up Camera":34.75,"Lane Departure Warning":36.03,"All Wheel Drive":37.47},"OPTIONS":24.47,"OPTIONS_AUD_LENGTH":16.17,"ENDFILE":38.65}
20:37:31 - ===================ClipsGen END  ======================== 

20:37:31 - INFO:: VIDEO JSON : "EFAE5173-B0C4-974B-2EB0-F902D5E0AB94.json"
20:37:31 - node /var/app/Vidbot-V2/dist/vidbot.js --input /var/www/html/clients/102113/video/EFAE5173-B0C4-974B-2EB0-F902D5E0AB94.json --log debug > /var/www/html/clients/102113/video/EFAE5173-B0C4-974B-2EB0-F902D5E0AB94.log
20:43:30 - Generated Video File./var/www/html/clients/102113/video/EFAE5173-B0C4-974B-2EB0-F902D5E0AB94.mp4
20:43:30 - INFO:: Generated Video File./var/www/html/clients/102113/video/EFAE5173-B0C4-974B-2EB0-F902D5E0AB94.mp4
20:43:30 - INFO:: Sprite & Bookmark Option(s) not enabled
20:43:30 - ================VIDEO JSON GEN END RETURN VALUE : 1 ============== 
20:43:30 - ================CREATE VIDEO END =========== 
 ERROR : { 0}
20:43:30 - Start Time:0
20:43:30 - 0##2.69##Make a great choice today with
20:43:30 - 2.69##4.62##The 2023
20:43:30 - 4.62##5.54##Traverse
20:43:30 - 5.54##15.89##Chevy Traverse is more stylish than minivans and far more fuel and space efficient than truck-based SUVs crossovers like the Traverse are excellent family vehicles.
20:43:30 - 15.89##19.05##and it is priced below $35000
20:43:30 - 19.05##22.47##This Vehicle has less than 35000 miles
20:43:30 - Replacing VTT String * General Options Intro to Here are some of this Vehicle's great options
20:43:30 - 22.47##24.82##Here are some of this Vehicle's great options
20:43:30 - 24.82##26.26##Remote Engine Start
20:43:30 - 26.26##28.43##Steering wheel audio controls
20:43:30 - 28.43##29.63##Power Liftgate
20:43:30 - 29.63##30.96##Power Passenger Seat
20:43:30 - 30.96##32.27##Traction Control
20:43:30 - 32.27##33.52##Stability Control
20:43:30 - 33.52##34.75##Keyless Entry
20:43:30 - 34.75##36.03##Back-Up Camera
20:43:30 - 36.03##37.47##Lane Departure Warning
20:43:30 - 37.47##38.65##All Wheel Drive
20:43:30 - 38.65##44.89##A vehicle like this doesn't come along everyday.  Come in and get it before someone else does!
20:43:30 - Curl Response - {"error":"Video key not found [EFAE5173-B0C4-974B-2EB0-F902D5E0AB94]"}
20:43:30 - Contents - /postVTTString/ -  - 
0##2.69##Make a great choice today with|||2.69##4.62##The 2023|||4.62##5.54##Traverse|||5.54##15.89##Chevy Traverse is more stylish than minivans and far more fuel and space efficient than truck-based SUVs crossovers like the Traverse are excellent family vehicles.|||15.89##19.05##and it is priced below $35000|||19.05##22.47##This Vehicle has less than 35000 miles|||22.47##24.82##Here are some of this Vehicle's great options|||24.82##26.26##Remote Engine Start|||26.26##28.43##Steering wheel audio controls|||28.43##29.63##Power Liftgate|||29.63##30.96##Power Passenger Seat|||30.96##32.27##Traction Control|||32.27##33.52##Stability Control|||33.52##34.75##Keyless Entry|||34.75##36.03##Back-Up Camera|||36.03##37.47##Lane Departure Warning|||37.47##38.65##All Wheel Drive|||38.65##44.89##A vehicle like this doesn't come along everyday.  Come in and get it before someone else does!
20:43:30 - VIDEO JSON GEN RETURN VALUE: - 0
20:43:30 - update message_remote_queue set error=0, video = 1, error_message = concat( "", error_message ), process_start = '2024-06-15 20:37:27', audio_process_start = '2024-06-15 20:37:27', audio_process_end = '2024-06-15 20:37:31', video_process_start ='2024-06-15 20:37:31', video_process_end='2024-06-15 20:43:30' where queue_id = 284389
20:43:30 - ==85 - 1 Elapsed Time 363.82 ==

20:43:30 - update queue_status set stat_last_update=NOW(), type_cnt = 85, type_loop_cnt = 1354 where type_val = 'V6'
20:43:30 - Curl Response - {"code":200,"status":"Success:PostServerProcessDetails Posted For IP [209.59.156.167] and Process [V6]"}
20:43:30 - Contents - /postServerProcessDetails/ - Success:PostServerProcessDetails Posted For IP [209.59.156.167] and Process [V6] - 200
20:43:30 - update queue_status set stat_last_update=NOW(), type_cnt = 85, type_loop_cnt = 1354 where type_val = 'V6'
20:43:30 - Curl Response - {"code":200,"status":"Success:PostServerProcessDetails Posted For IP [209.59.156.167] and Process [V6]"}
20:43:30 - Contents - /postServerProcessDetails/ - Success:PostServerProcessDetails Posted For IP [209.59.156.167] and Process [V6] - 200
20:43:30 - ========== 85  - 538 mins 380.00917647059 Video Process / Start:2024-06-15 06:22:02 / Mod:5/16======
20:43:31 - Fetching  Video Jobs Mod Val : 5 Mod Limit : 16 Queue ID : 0 

20:43:31 - ========select * from message_remote_queue, hvo_data where queue_id%16 = 5 and image = 1 and video = 0 and error = 0 and hvo_queue_id = queue_id   order by high_priority_row desc, queue_id asc limit 1==================count =1
20:43:31 - Processing Auto VideoFKEY:1676B9D4-9614-42FE-23E5-A9A552550E89 - QueueID:284405 
20:43:31 - CLIENT INFO  CLIENT_FK  : 76C7CE3F-D342-7955-24B5-9A65FC746E91 ,CLIENT_INFO :{"client_id":"107030","client_fk":"76C7CE3F-D342-7955-24B5-9A65FC746E91","client_rftp_id":"2241159","client_ilot_id":"3152318","client_cc_id":"23750","client_name":"Earnhardt Chrysler Jeep Dodge RAM","client_active":"1","client_regen":"0","client_desc":"","client_createdate":"2018-09-17 21:13:27","client_enddate":"2018-10-01 07:32:41","client_update":"2018-12-11 23:21:35","client_demo":"0","client_email_forward":"","client_salesperson_name":"","client_address":"1521 E Drivers Way","client_city":"Gilbert","client_state":"AZ","client_zip":"85297","client_phone":"4809264000","client_url":"","client_yt_uname":"","client_yt_pwd":"","client_md5":"378e411ee0d9a61c187b73e17b0c06e1","client_yt_verified":"0","client_yt_error":"0","client_video_size":"HDLARGE","client_tts_vm":"2","client_video_style":"RANDOM","client_mobile":"1","client_lat_lng":"","client_acc_id":"100000","SHOW_CARSTORY":"0"}
20:43:31 - Rest Call: /client/videoDetails/76C7CE3F-D342-7955-24B5-9A65FC746E91?video_key=1676B9D4-9614-42FE-23E5-A9A552550E89
20:43:31 - Curl Response - {"vehicle_id":"24131761","vehicle_client_id":"107030","vehicle_fkey":"1676B9D4-9614-42FE-23E5-A9A552550E89","vehicle_uid":"1281718048","vehicle_vin":"2C3CDZGG9KH655527","vehicle_stock":"D32159A","vehicle_year":"2019","vehicle_make":"Dodge","vehicle_model":"Challenger","vehicle_trim":"SXT","vehicle_price":"21860","vehicle_mileage":"53614","vehicle_int_color":"Black","vehicle_ext_color":"White Knuckle Clearcoat","vehicle_body_type":"2dr Car","vehicle_listing_type":"Used","vehicle_citympg":"18","vehicle_hwympg":"27","vehicle_combmpg":"","vehicle_cylinders":"6","vehicle_engine_size":"3.6 L","vehicle_trans":"Automatic","vehicle_drivetrain":"AWD","vehicle_passengers":"0","vehicle_doors":"2","vehicle_certified":"1","vehicle_special":"0","vehicle_options":"WHEELS: 19 X 7.5 PAINTED W\/DARK POCKETS  (STD),BLACK  HOUNDSTOOTH CLOTH SPORT SEATS,ENGINE: 3.6L V6 24V VVT  (STD),MANUFACTURER'S STATEMENT OF ORIGIN,COMPACT SPARE TIRE,TRANSMISSION: 8-SPEED AUTOMATIC (850RE)  (STD),QUICK ORDER PACKAGE 21B SXT AWD  -inc: Engine: 3.6L V6 24V VVT  Transmission: 8-Speed Automatic (850RE),WHITE KNUCKLE CLEARCOAT,All Wheel Drive,Power Steering,ABS,4-Wheel Disc Brakes,Brake Assist,Aluminum Wheels,Tires - Front Performance,Tires - Rear Performance,Heated Mirrors,Power Mirror(s),Rear Defrost,Intermittent Wipers,Variable Speed Intermittent Wipers,Rear Spoiler,Daytime Running Lights,Automatic Headlights,AM\/FM Stereo,Bluetooth Connection,Steering Wheel Audio Controls,MP3 Player,Auxiliary Audio Input,Power Driver Seat,Driver Adjustable Lumbar,Power Driver Seat,Driver Adjustable Lumbar,Pass-Through Rear Seat,Rear Bench Seat,Adjustable Steering Wheel,Trip Computer,Leather Steering Wheel,Keyless Entry,Power Door Locks,Keyless Start,Keyless Entry,Power Door Locks,Cruise Control,Climate Control,Multi-Zone A\/C,A\/C,Cloth Seats,Bucket Seats,Auto-Dimming Rearview Mirror,Driver Vanity Mirror,Passenger Vanity Mirror,Driver Illuminated Vanity Mirror,Passenger Illuminated Visor Mirror,Floor Mats,Keyless Start,Smart Device Integration,MP3 Player,Smart Device Integration,Bluetooth Connection,Power Windows,Power Door Locks,Trip Computer,Security System,Immobilizer,Traction Control,Stability Control,Traction Control,Front Side Air Bag,Tire Pressure Monitor,Driver Air Bag,Passenger Air Bag,Front Head Air Bag,Rear Head Air Bag,Back-Up Camera","vehicle_desc":"Thanks for looking at this vehicle! Earnhardt is a name if you can trust since 1951. So you can trust this vehicle has been inspected and reconditioned - and is ready for you to take home - And, that aint no bull! This 2019 Dodge Challenger SXT is a powerful and reliable automobile. It has an all-wheel drive system, 3.6 liter 6 cylinder engine, and sequential port fuel injection, making it an efficient and powerful motorcar. It has driven 53,614 miles and has a white knuckle clearcoat exterior that is sure to turn heads. Inside, the car has a black interior with a touch screen display, Bluetooth audio connection, hill start assist, on demand four wheel drive, Apple Carplay ready, and Bluetooth phone connectivity. This car has been awarded a crash test rating of 5 out of 5 stars, making it one of the safest cars on the road today. With all these features, this car is sure to turn heads wherever it goes! No Bull is more than a slogan - Its a way of life. Its a way of doing business. And it means - price wont get in the way of having happy customers. Please make us an offer today!","vehicle_img_url":"https:\/\/content.homenetiol.com\/2000150\/2065303\/640x480\/66d01eea4a8d49698b840bec27fa291c.jpg,https:\/\/content.homenetiol.com\/2000150\/2065303\/640x480\/5882a163c079402d96093a5dffec2026.jpg,https:\/\/content.homenetiol.com\/2000150\/2065303\/640x480\/01971b2cfffd4ec0b491d7ef27ae1f2e.jpg,https:\/\/content.homenetiol.com\/2000150\/2065303\/640x480\/cb17507262b441a1876afd70da3c95aa.jpg,https:\/\/content.homenetiol.com\/2000150\/2065303\/640x480\/57d2cbf820c74a8c94b36f86d49bb332.jpg,https:\/\/content.homenetiol.com\/2000150\/2065303\/640x480\/73e91a542de7414aa9017ddd599e384e.jpg,https:\/\/content.homenetiol.com\/2000150\/2065303\/640x480\/f5e1f97f985148559951db52872aab89.jpg,https:\/\/content.homenetiol.com\/2000150\/2065303\/640x480\/6b5c7363bc93479990ee3a023b937684.jpg,https:\/\/content.homenetiol.com\/2000150\/2065303\/640x480\/a2e0db6756c24f7fabd468195d2d8a9a.jpg,https:\/\/content.homenetiol.com\/2000150\/2065303\/640x480\/1533023d52ac47d5a7521ec3a3a6f55f.jpg,https:\/\/content.homenetiol.com\/2000150\/2065303\/640x480\/25d3d7df78864c5781c33ff61da6c0dd.jpg,https:\/\/content.homenetiol.com\/2000150\/2065303\/640x480\/3b0c5d6b21fa4d258c0d28f5a202f34e.jpg,https:\/\/content.homenetiol.com\/2000150\/2065303\/640x480\/bad63f510d6340c48dd79b952faf73fa.jpg,https:\/\/content.homenetiol.com\/2000150\/2065303\/640x480\/f340c32781734fc99ae58f9045a8899b.jpg,https:\/\/content.homenetiol.com\/2000150\/2065303\/640x480\/e271704f1db04a5ebe4ac3408daa3592.jpg,https:\/\/content.homenetiol.com\/2000150\/2065303\/640x480\/c9ae050e90674d9a9a9ce049d2266815.jpg,https:\/\/content.homenetiol.com\/2000150\/2065303\/640x480\/b16c857322124d6eb4e7d10f0ab21d8a.jpg,https:\/\/content.homenetiol.com\/2000150\/2065303\/640x480\/e3e3a92430dc48119264e8f116281f1d.jpg,https:\/\/content.homenetiol.com\/2000150\/2065303\/640x480\/e311565a492e4a99a6e837ddd3507b19.jpg,https:\/\/content.homenetiol.com\/2000150\/2065303\/640x480\/3e0e90738a1440b59f815c981798f8ff.jpg","vehicle_overlay_time":"","vehicle_tts_text":"","vehicle_img_cnt":"","veh_more_info":"","vehicle_create_date":"2024-06-15 08:40:50","vehicle_updated_date":"2024-06-15 20:40:19","vehicle_last_update":"2024-06-15 20:40:19","vehicle_md5":"fd0dcc61ee27ffafa0fe455b55dc2096","vehicle_status":"U","vehicle_view_cnt":"0","vehicle_url":"https:\/\/gcsimages.s3.us-west-001.backblazeb2.com\/clients\/107030\/video\/1676B9D4-9614-42FE-23E5-A9A552550E89.mp4","vehicle_murl":"","vehicle_https_url":"","vehicle_delete_flag":"0","vehicle_delete_time":"","yt_url":"","yt_key":"","yt_created_on":"","cf_url":"","cf_xml":""}
20:43:31 - Rest Call: /client/getAudioVideoConfig/76C7CE3F-D342-7955-24B5-9A65FC746E91?listing_type=Used&video_type=Auto&certified=1&vehicle_make=Dodge
20:43:32 - Curl Response - {"BG_MUSIC":"RF12_Funky_2","THEME_BG_COLOR":"ffffff","THEME_ACCENTS_COLOR":"532380","THEME_FONT_COLOR":"444444","THEME_FONT":"Din","THEME_STYLE":"Ren","BG_VOL_LEVEL":"0.25","AUDIO_VO":"","VIDEO_SIZE":"VIDEO_LARGE","CUSTOM_INTRO":"","CUSTOM_OUTRO":"","THEME_KEY":"100000_0_Auto_Default_0_ALL","THEME_RANK":"2","THEME_CONFIG":"RESELLER_CONFIG","OLD_BG_STYLE":"0"}
20:43:32 - Return from CheckProfileVal function::0 - DISABLE_PRICE - YES
20:43:32 - Return from CheckProfileVal function::0 - DISABLE_MILEAGE - YES
20:43:32 - Return from CheckProfileVal function::0 - DISABLE_CARSTORY - YES
20:43:32 - Config Information for 1676B9D4-9614-42FE-23E5-A9A552550E89 - Width:640 - CPO:0/1 - CF: - CS:0  - Intro: - Outro: - Ovleray: -THEME:100000_0_Auto_Default_0_ALL
20:43:32 - https://content.homenetiol.com/2000150/2065303/640x480/66d01eea4a8d49698b840bec27fa291c.jpg /var/www/html/clients/107030/images/1676B9D4-9614-42FE-23E5-A9A552550E89_1.jpg
20:43:32 - https://content.homenetiol.com/2000150/2065303/640x480/5882a163c079402d96093a5dffec2026.jpg /var/www/html/clients/107030/images/1676B9D4-9614-42FE-23E5-A9A552550E89_2.jpg
20:43:32 - https://content.homenetiol.com/2000150/2065303/640x480/01971b2cfffd4ec0b491d7ef27ae1f2e.jpg /var/www/html/clients/107030/images/1676B9D4-9614-42FE-23E5-A9A552550E89_3.jpg
20:43:32 - https://content.homenetiol.com/2000150/2065303/640x480/cb17507262b441a1876afd70da3c95aa.jpg /var/www/html/clients/107030/images/1676B9D4-9614-42FE-23E5-A9A552550E89_4.jpg
20:43:32 - https://content.homenetiol.com/2000150/2065303/640x480/57d2cbf820c74a8c94b36f86d49bb332.jpg /var/www/html/clients/107030/images/1676B9D4-9614-42FE-23E5-A9A552550E89_5.jpg
20:43:32 - https://content.homenetiol.com/2000150/2065303/640x480/73e91a542de7414aa9017ddd599e384e.jpg /var/www/html/clients/107030/images/1676B9D4-9614-42FE-23E5-A9A552550E89_6.jpg
20:43:32 - https://content.homenetiol.com/2000150/2065303/640x480/f5e1f97f985148559951db52872aab89.jpg /var/www/html/clients/107030/images/1676B9D4-9614-42FE-23E5-A9A552550E89_7.jpg
20:43:32 - https://content.homenetiol.com/2000150/2065303/640x480/6b5c7363bc93479990ee3a023b937684.jpg /var/www/html/clients/107030/images/1676B9D4-9614-42FE-23E5-A9A552550E89_8.jpg
20:43:32 - https://content.homenetiol.com/2000150/2065303/640x480/a2e0db6756c24f7fabd468195d2d8a9a.jpg /var/www/html/clients/107030/images/1676B9D4-9614-42FE-23E5-A9A552550E89_9.jpg
20:43:32 - https://content.homenetiol.com/2000150/2065303/640x480/1533023d52ac47d5a7521ec3a3a6f55f.jpg /var/www/html/clients/107030/images/1676B9D4-9614-42FE-23E5-A9A552550E89_10.jpg
20:43:32 - https://content.homenetiol.com/2000150/2065303/640x480/25d3d7df78864c5781c33ff61da6c0dd.jpg /var/www/html/clients/107030/images/1676B9D4-9614-42FE-23E5-A9A552550E89_11.jpg
20:43:32 - https://content.homenetiol.com/2000150/2065303/640x480/3b0c5d6b21fa4d258c0d28f5a202f34e.jpg /var/www/html/clients/107030/images/1676B9D4-9614-42FE-23E5-A9A552550E89_12.jpg
20:43:32 - https://content.homenetiol.com/2000150/2065303/640x480/bad63f510d6340c48dd79b952faf73fa.jpg /var/www/html/clients/107030/images/1676B9D4-9614-42FE-23E5-A9A552550E89_13.jpg
20:43:32 - https://content.homenetiol.com/2000150/2065303/640x480/f340c32781734fc99ae58f9045a8899b.jpg /var/www/html/clients/107030/images/1676B9D4-9614-42FE-23E5-A9A552550E89_14.jpg
20:43:32 - https://content.homenetiol.com/2000150/2065303/640x480/e271704f1db04a5ebe4ac3408daa3592.jpg /var/www/html/clients/107030/images/1676B9D4-9614-42FE-23E5-A9A552550E89_15.jpg
20:43:32 - https://content.homenetiol.com/2000150/2065303/640x480/c9ae050e90674d9a9a9ce049d2266815.jpg /var/www/html/clients/107030/images/1676B9D4-9614-42FE-23E5-A9A552550E89_16.jpg
20:43:32 - https://content.homenetiol.com/2000150/2065303/640x480/b16c857322124d6eb4e7d10f0ab21d8a.jpg /var/www/html/clients/107030/images/1676B9D4-9614-42FE-23E5-A9A552550E89_17.jpg
20:43:32 - https://content.homenetiol.com/2000150/2065303/640x480/e3e3a92430dc48119264e8f116281f1d.jpg /var/www/html/clients/107030/images/1676B9D4-9614-42FE-23E5-A9A552550E89_18.jpg
20:43:32 - https://content.homenetiol.com/2000150/2065303/640x480/e311565a492e4a99a6e837ddd3507b19.jpg /var/www/html/clients/107030/images/1676B9D4-9614-42FE-23E5-A9A552550E89_19.jpg
20:43:32 - https://content.homenetiol.com/2000150/2065303/640x480/3e0e90738a1440b59f815c981798f8ff.jpg /var/www/html/clients/107030/images/1676B9D4-9614-42FE-23E5-A9A552550E89_20.jpg
20:43:32 - Image Count 20
20:43:32 - Setting Female English VO Constants | 0 | 0
20:43:32 - ====HVO Value:1, Audio Value:0===
20:43:32 - Return from CheckProfileVal function::0 - AUDIO_INTRO - 
20:43:32 - Return from CheckProfileVal function::0 - AUDIO_OUTRO - 
20:43:32 - ================Process HVO=========== 
 1
20:43:32 - ================CLIENT SELECT TTS VM VALUE=========== 
 2
20:43:32 - 2 - 2 - /var/app/video_pre_processor/assets/hvo/
20:43:32 - Setting Female English VO Constants | 0 | 2
20:43:32 - HVO Soap Call Method - AudoListWMIE 

20:43:32 - Getting Text For Audio Files
20:43:32 - HVO Soap Call Method - AudoListTWMIE 

20:43:32 - Getting Text For Audio Files emotionalFile 13
20:43:32 - HVO Soap Call Method - GetTTScripts 

20:43:32 - Getting Text For Audio Files introEmotionalFile 25
20:43:32 - HVO Soap Call Method - GetTTScripts 

20:43:32 - Getting Text For Audio Files scriptFile 21
20:43:32 - HVO Soap Call Method - GetTTScripts 

20:43:32 - ================TTS VM VALUE=========== 
 2
20:43:32 - ================GetVOFiles=========== 
 {"OptionFiles":[{"option_str":"* General Options Intro","option_file":"http:\/\/hvo.flickfusion.net\/audio\/options\/options_fe_audio_file_55.mp3","option_saftey":1},{"option_str":"Back-Up Camera","option_file":"http:\/\/hvo.flickfusion.net\/audio\/options\/options_fe_audio_file_337.mp3","option_saftey":1},{"option_str":"All Wheel Drive","option_file":"http:\/\/hvo.flickfusion.net\/audio\/options\/options_fe_audio_file_82.mp3","option_saftey":1},{"option_str":"ANTI-LOCK BRAKING SYSTEM","option_file":"http:\/\/hvo.flickfusion.net\/audio\/options\/options_fe_audio_file_70.mp3","option_saftey":1},{"option_str":"Steering wheel audio controls","option_file":"http:\/\/hvo.flickfusion.net\/audio\/options\/options_fe_audio_file_296.mp3","option_saftey":1},{"option_str":"Keyless Entry","option_file":"http:\/\/hvo.flickfusion.net\/audio\/options\/options_fe_audio_file_202.mp3","option_saftey":1},{"option_str":"Traction Control","option_file":"http:\/\/hvo.flickfusion.net\/audio\/options\/options_fe_audio_file_18.mp3","option_saftey":2},{"option_str":"Stability Control","option_file":"http:\/\/hvo.flickfusion.net\/audio\/options\/options_fe_audio_file_17.mp3","option_saftey":2},{"option_str":"Keyless Entry","option_file":"http:\/\/hvo.flickfusion.net\/audio\/options\/options_fe_audio_file_202.mp3","option_saftey":1},{"option_str":"Traction Control","option_file":"http:\/\/hvo.flickfusion.net\/audio\/options\/options_fe_audio_file_18.mp3","option_saftey":2},{"option_str":"Leather Wrapped Steering Wheel","option_file":"http:\/\/hvo.flickfusion.net\/audio\/options\/options_fe_audio_file_207.mp3","option_saftey":1},{"option_str":"Bluetooth","option_file":"http:\/\/hvo.flickfusion.net\/audio\/options\/options_fe_audio_file_846.mp3","option_saftey":1},{"option_str":"Bluetooth","option_file":"http:\/\/hvo.flickfusion.net\/audio\/options\/options_fe_audio_file_846.mp3","option_saftey":1},{"option_str":"Driver Air Bag","option_file":"http:\/\/hvo.flickfusion.net\/audio\/options\/options_fe_audio_file_148.mp3","option_saftey":1},{"option_str":"Adjustable Steering Wheel","option_file":"http:\/\/hvo.flickfusion.net\/audio\/options\/options_fe_audio_file_74.mp3","option_saftey":1},{"option_str":"Power Steering","option_file":"http:\/\/hvo.flickfusion.net\/audio\/options\/options_fe_audio_file_244.mp3","option_saftey":1},{"option_str":"Keyless Start","option_file":"http:\/\/hvo.flickfusion.net\/audio\/options\/options_fe_audio_file_203.mp3","option_saftey":1},{"option_str":"Aluminum Wheels","option_file":"http:\/\/hvo.flickfusion.net\/audio\/options\/options_fe_audio_file_83.mp3","option_saftey":1},{"option_str":"Keyless Start","option_file":"http:\/\/hvo.flickfusion.net\/audio\/options\/options_fe_audio_file_203.mp3","option_saftey":1},{"option_str":"FLOOR MATS","option_file":"http:\/\/hvo.flickfusion.net\/audio\/options\/options_fe_audio_file_578.mp3","option_saftey":1},{"option_str":"Cruise Control","option_file":"http:\/\/hvo.flickfusion.net\/audio\/options\/options_fe_audio_file_134.mp3","option_saftey":1},{"option_str":"4-Wheel Disc Brakes","option_file":"http:\/\/hvo.flickfusion.net\/audio\/options\/options_fe_audio_file_63.mp3","option_saftey":1},{"option_str":"AUTO-DIMMING REARVIEW MIRROR (PPO)","option_file":"http:\/\/hvo.flickfusion.net\/audio\/options\/options_fe_audio_file_436.mp3","option_saftey":1},{"option_str":"Rear Defrost","option_file":"http:\/\/hvo.flickfusion.net\/audio\/options\/options_fe_audio_file_259.mp3","option_saftey":1},{"option_str":"AM\/FM STEREO RADIO","option_file":"http:\/\/hvo.flickfusion.net\/audio\/options\/options_fe_audio_file_69.mp3","option_saftey":1},{"option_str":"Climate Control","option_file":"http:\/\/hvo.flickfusion.net\/audio\/options\/options_fe_audio_file_126.mp3","option_saftey":1},{"option_str":"Power Door Locks","option_file":"http:\/\/hvo.flickfusion.net\/audio\/options\/options_fe_audio_file_234.mp3","option_saftey":1},{"option_str":"MP3 Player","option_file":"http:\/\/hvo.flickfusion.net\/audio\/options\/options_fe_audio_file_211.mp3","option_saftey":1},{"option_str":"Trip Computer","option_file":"http:\/\/hvo.flickfusion.net\/audio\/options\/options_fe_audio_file_321.mp3","option_saftey":1},{"option_str":"Passenger Air Bag","option_file":"http:\/\/hvo.flickfusion.net\/audio\/options\/options_fe_audio_file_228.mp3","option_saftey":1},{"option_str":"SECURITY SYSTEM","option_file":"http:\/\/hvo.flickfusion.net\/audio\/options\/options_fe_audio_file_996.mp3","option_saftey":1},{"option_str":"Power Door Locks","option_file":"http:\/\/hvo.flickfusion.net\/audio\/options\/options_fe_audio_file_234.mp3","option_saftey":1},{"option_str":"Power Door Locks","option_file":"http:\/\/hvo.flickfusion.net\/audio\/options\/options_fe_audio_file_234.mp3","option_saftey":1},{"option_str":"MP3 Player","option_file":"http:\/\/hvo.flickfusion.net\/audio\/options\/options_fe_audio_file_211.mp3","option_saftey":1},{"option_str":"Trip Computer","option_file":"http:\/\/hvo.flickfusion.net\/audio\/options\/options_fe_audio_file_321.mp3","option_saftey":1},{"option_str":"Bucket Seats","option_file":"http:\/\/hvo.flickfusion.net\/audio\/options\/options_fe_audio_file_107.mp3","option_saftey":1},{"option_str":"Power Windows","option_file":"http:\/\/hvo.flickfusion.net\/audio\/options\/options_fe_audio_file_2.mp3","option_saftey":1},{"option_str":"Rear Head Air Bag","option_file":"http:\/\/hvo.flickfusion.net\/audio\/options\/options_fe_audio_file_261.mp3","option_saftey":1},{"option_str":"A\/C","option_file":"http:\/\/hvo.flickfusion.net\/audio\/options\/options_fe_audio_file_67.mp3","option_saftey":1},{"option_str":"Brake Assist","option_file":"http:\/\/hvo.flickfusion.net\/audio\/options\/options_fe_audio_file_104.mp3","option_saftey":1},{"option_str":"Auxiliary Audio Input","option_file":"http:\/\/hvo.flickfusion.net\/audio\/options\/options_fe_audio_file_95.mp3","option_saftey":1},{"option_str":"Daytime Running Lights","option_file":"http:\/\/hvo.flickfusion.net\/audio\/options\/options_fe_audio_file_142.mp3","option_saftey":1},{"option_str":"Power Driver Seat","option_file":"http:\/\/hvo.flickfusion.net\/audio\/options\/options_fe_audio_file_237.mp3","option_saftey":1},{"option_str":"Passenger Illuminated Visor Mirror","option_file":"http:\/\/hvo.flickfusion.net\/audio\/options\/options_fe_audio_file_230.mp3","option_saftey":1},{"option_str":"Driver Vanity Mirror","option_file":"http:\/\/hvo.flickfusion.net\/audio\/options\/options_fe_audio_file_152.mp3","option_saftey":1},{"option_str":"Cloth Seats","option_file":"http:\/\/hvo.flickfusion.net\/audio\/options\/options_fe_audio_file_130.mp3","option_saftey":1},{"option_str":"Power Driver Seat","option_file":"http:\/\/hvo.flickfusion.net\/audio\/options\/options_fe_audio_file_237.mp3","option_saftey":1},{"option_str":"Driver Illuminated Vanity Mirror","option_file":"http:\/\/hvo.flickfusion.net\/audio\/options\/options_fe_audio_file_149.mp3","option_saftey":1},{"option_str":"Passenger Vanity Mirror","option_file":"http:\/\/hvo.flickfusion.net\/audio\/options\/options_fe_audio_file_233.mp3","option_saftey":1},{"option_str":"Compact Spare Tire","option_file":"http:\/\/hvo.flickfusion.net\/audio\/options\/options_fe_audio_file_132.mp3","option_saftey":1},{"option_str":"Heated Mirrors","option_file":"http:\/\/hvo.flickfusion.net\/audio\/options\/options_fe_audio_file_7.mp3","option_saftey":1},{"option_str":"Pass-Through Rear Seat","option_file":"http:\/\/hvo.flickfusion.net\/audio\/options\/options_fe_audio_file_227.mp3","option_saftey":1},{"option_str":"Rear Spoiler","option_file":"http:\/\/hvo.flickfusion.net\/audio\/options\/options_fe_audio_file_10.mp3","option_saftey":1},{"option_str":"Tire Pressure Monitor","option_file":"http:\/\/hvo.flickfusion.net\/audio\/options\/options_fe_audio_file_36.mp3","option_saftey":2},{"option_str":"Tires - Rear Performance","option_file":"http:\/\/hvo.flickfusion.net\/audio\/options\/options_fe_audio_file_316.mp3","option_saftey":1},{"option_str":"Tires - Front Performance","option_file":"http:\/\/hvo.flickfusion.net\/audio\/options\/options_fe_audio_file_311.mp3","option_saftey":1},{"option_str":"Smart Device Integration","option_file":"http:\/\/hvo.flickfusion.net\/audio\/options\/options_fe_audio_file_1480.mp3","option_saftey":1},{"option_str":"Variable Speed Intermittent Wipers","option_file":"http:\/\/hvo.flickfusion.net\/audio\/options\/options_fe_audio_file_325.mp3","option_saftey":1},{"option_str":"REAR BENCH SEAT","option_file":"http:\/\/hvo.flickfusion.net\/audio\/options\/options_fe_audio_file_693.mp3","option_saftey":1},{"option_str":"Smart Device Integration","option_file":"http:\/\/hvo.flickfusion.net\/audio\/options\/options_fe_audio_file_1480.mp3","option_saftey":1}],"yearFile":"http:\/\/hvo.flickfusion.net\/audio\/year\/year_fe_audio_file_36.mp3","makeFile":"http:\/\/hvo.flickfusion.net\/audio\/makes\/make_name_fe_audio_file_11.mp3","modelFile":"http:\/\/hvo.flickfusion.net\/audio\/mdlnames\/model_name_fe_audio_file_107.mp3","modelHighlightFile":"http:\/\/hvo.flickfusion.net\/audio\/models\/model_fe_audio_file_107.mp3","styleFile":"","bodytypeFile":"","transFile":"http:\/\/hvo.flickfusion.net\/audio\/domain_transmission\/transmission_fe_audio_file_2.mp3","engineFile":"http:\/\/hvo.flickfusion.net\/audio\/domain_enginesize\/enginesize_fe_audio_file_28.mp3","cylindersFile":"http:\/\/hvo.flickfusion.net\/audio\/domain_cylinders\/cylinder_fe_audio_file_5.mp3","driveTrainFile":"http:\/\/hvo.flickfusion.net\/audio\/domain_drivetrain\/drivetrain_fe_audio_file_4.mp3","priceFile":"http:\/\/hvo.flickfusion.net\/audio\/prices\/price_fe_audio_file_12.mp3","mileageFile":"http:\/\/hvo.flickfusion.net\/audio\/mileage\/miles_fe_audio_file_13.mp3","carfaxFile":"","emotionalFile":"http:\/\/hvo.flickfusion.net\/audio\/emotional\/emotional_fe_audio_file_13.mp3","introEmotionalFile":"http:\/\/hvo.flickfusion.net\/audio\/emotional\/ie_fe_audio_file_25.mp3","scriptFile":"http:\/\/hvo.flickfusion.net\/audio\/domain_scripts\/script_fe_audio_file_21.mp3","statusCode":"1","statusMessage":"Audio Files Sent"}
20:43:32 - /var/www/html/clients/107030/audio/1676B9D4-9614-42FE-23E5-A9A552550E89.wav
20:43:32 - ================Process HVO SOAP CALL CMD=========== 
 /usr/bin/sox
 STATUS CODE 
 1
20:43:32 - /var/app/video_pre_processor/assets/hvo/ie_fe_audio_file_25.wav PlayTime:1.93
20:43:32 - /var/app/video_pre_processor/assets/hvo/year_fe_audio_file_36.wav PlayTime:1.8
20:43:32 - /var/app/video_pre_processor/assets/hvo/model_name_fe_audio_file_107.wav PlayTime:0.86
20:43:32 - /var/app/video_pre_processor/assets/hvo/model_fe_audio_file_107.wav PlayTime:10.95
20:43:32 - Skipping VTT for BODY - bodytypeFile
20:43:32 - /var/app/video_pre_processor/assets/hvo/price_fe_audio_file_12.wav PlayTime:2.95
20:43:32 - KM Check : 53614 | 0
20:43:32 - /var/app/video_pre_processor/assets/hvo/miles_fe_audio_file_13.wav PlayTime:3.42
20:43:32 - Curl Response - {"error":"Vehicle options not found for vehicle key[1676B9D4-9614-42FE-23E5-A9A552550E89]"}
20:43:32 - ============={"error":"Vehicle options not found for vehicle key[1676B9D4-9614-42FE-23E5-A9A552550E89]"}===============
20:43:32 - Skipping Duplicate Option Keyless Entry
20:43:32 - Skipping Duplicate Option Traction Control
20:43:32 - Skipping Duplicate Option Bluetooth
20:43:32 - Skipping Duplicate Option Keyless Start
20:43:32 - Skipping Duplicate Option Power Door Locks
20:43:32 - Skipping Duplicate Option Power Door Locks
20:43:32 - Skipping Duplicate Option MP3 Player
20:43:32 - Skipping Duplicate Option Trip Computer
20:43:32 - Skipping Duplicate Option Power Driver Seat
20:43:32 - Skipping Duplicate Option Smart Device Integration
20:43:32 - /var/app/video_pre_processor/assets/hvo/options_fe_audio_file_55.wav PlayTime:2.35
20:43:32 - /var/app/video_pre_processor/assets/hvo/options_fe_audio_file_337.wav PlayTime:1.28
20:43:32 - /var/app/video_pre_processor/assets/hvo/options_fe_audio_file_82.wav PlayTime:1.18
20:43:32 - /var/app/video_pre_processor/assets/hvo/options_fe_audio_file_70.wav PlayTime:1.7
20:43:32 - /var/app/video_pre_processor/assets/hvo/options_fe_audio_file_296.wav PlayTime:2.17
20:43:32 - /var/app/video_pre_processor/assets/hvo/options_fe_audio_file_202.wav PlayTime:1.23
20:43:32 - /var/app/video_pre_processor/assets/hvo/options_fe_audio_file_18.wav PlayTime:1.31
20:43:32 - /var/app/video_pre_processor/assets/hvo/options_fe_audio_file_17.wav PlayTime:1.25
20:43:32 - /var/app/video_pre_processor/assets/hvo/options_fe_audio_file_207.wav PlayTime:1.83
20:43:32 - /var/app/video_pre_processor/assets/hvo/options_fe_audio_file_846.wav PlayTime:1.04
20:43:32 - /var/app/video_pre_processor/assets/hvo/options_fe_audio_file_148.wav PlayTime:1.28
20:43:32 - ======= ALL Options  ========== 
null
20:43:32 - /var/www/html/clients/107030/audio/1676B9D4-9614-42FE-23E5-A9A552550E89_option.wav
20:43:32 - /usr/bin/sox /var/app/video_pre_processor/assets/hvo/options_fe_audio_file_55.wav /var/app/video_pre_processor/assets/hvo/options_fe_audio_file_337.wav /var/app/video_pre_processor/assets/hvo/options_fe_audio_file_82.wav /var/app/video_pre_processor/assets/hvo/options_fe_audio_file_70.wav /var/app/video_pre_processor/assets/hvo/options_fe_audio_file_296.wav /var/app/video_pre_processor/assets/hvo/options_fe_audio_file_202.wav /var/app/video_pre_processor/assets/hvo/options_fe_audio_file_18.wav /var/app/video_pre_processor/assets/hvo/options_fe_audio_file_17.wav /var/app/video_pre_processor/assets/hvo/options_fe_audio_file_207.wav /var/app/video_pre_processor/assets/hvo/options_fe_audio_file_846.wav /var/app/video_pre_processor/assets/hvo/options_fe_audio_file_148.wav /var/www/html/clients/107030/audio/1676B9D4-9614-42FE-23E5-A9A552550E89_option.wav
20:43:32 - /var/www/html/clients/107030/audio/1676B9D4-9614-42FE-23E5-A9A552550E89_option.wav PlayTime:16.61
20:43:32 - Skipping VTT for CARFAX - carfaxFile
20:43:32 - /var/app/video_pre_processor/assets/hvo/emotional_fe_audio_file_13.wav PlayTime:4.65
20:43:32 - /usr/bin/sox /var/app/video_pre_processor/assets/hvo/ie_fe_audio_file_25.wav /var/app/video_pre_processor/assets/hvo/year_fe_audio_file_36.wav /var/app/video_pre_processor/assets/hvo/model_name_fe_audio_file_107.wav /var/app/video_pre_processor/assets/hvo/model_fe_audio_file_107.wav /var/app/video_pre_processor/assets/hvo/price_fe_audio_file_12.wav /var/app/video_pre_processor/assets/hvo/miles_fe_audio_file_13.wav /var/www/html/clients/107030/audio/1676B9D4-9614-42FE-23E5-A9A552550E89_option.wav /var/app/video_pre_processor/assets/hvo/emotional_fe_audio_file_13.wav /var/www/html/clients/107030/audio/1676B9D4-9614-42FE-23E5-A9A552550E89_temp1.wav
20:43:32 - Return from CheckProfileVal function::0 - REPLACE_FULL_AUDIO - 
20:43:32 - Return from CheckProfileVal function::0 - REPLACE_FULL_AUDIO_NEW - 
20:43:32 - ========REPALCE AUDIO TRACK LISTING TYPE used \ n USED VALUE : 0 NEW AUDIO VALUE : { 0} ==============

20:43:32 - Video Length for audio merge: 0
20:43:32 - /root/bin/ffmpeg  -i /var/www/html/clients/107030/audio/1676B9D4-9614-42FE-23E5-A9A552550E89.wav -f mp3 -ar 44100 -ab 320 -ac 2 -y /var/www/html/clients/107030/audio/1676B9D4-9614-42FE-23E5-A9A552550E89.mp3
ffmpeg version N-109053-g9b13078c6a Copyright (c) 2000-2022 the FFmpeg developers
  built with gcc 5.4.0 (GCC)
  configuration: --prefix=/root/ffmpeg_build --pkg-config-flags=--static --extra-cflags=-I/root/ffmpeg_build/include --extra-ldflags=-L/root/ffmpeg_build/lib --extra-libs=-lpthread --extra-libs=-lm --bindir=/root/bin --enable-gpl --enable-libfdk_aac --enable-libfreetype --enable-libmp3lame --enable-libopus --enable-libvpx --enable-libx264 --enable-openssl --enable-libx265 --enable-nonfree --enable-libvidstab
  libavutil      57. 42.100 / 57. 42.100
  libavcodec     59. 52.101 / 59. 52.101
  libavformat    59. 34.101 / 59. 34.101
  libavdevice    59.  8.101 / 59.  8.101
  libavfilter     8. 50.100 /  8. 50.100
  libswscale      6.  8.112 /  6.  8.112
  libswresample   4.  9.100 /  4.  9.100
  libpostproc    56.  7.100 / 56.  7.100
Guessed Channel Layout for Input Stream #0.0 : stereo
Input #0, wav, from '/var/www/html/clients/107030/audio/1676B9D4-9614-42FE-23E5-A9A552550E89.wav':
  Duration: 00:00:43.18, bitrate: 1411 kb/s
  Stream #0:0: Audio: pcm_s16le ([1][0][0][0] / 0x0001), 44100 Hz, 2 channels, s16, 1411 kb/s
Stream mapping:
  Stream #0:0 -> #0:0 (pcm_s16le (native) -> mp3 (libmp3lame))
Press [q] to stop, [?] for help
[libmp3lame @ 0x4137480] Bitrate 320 is extremely low, maybe you mean 320k
The bitrate parameter is set too low. It takes bits/s as argument, not kbits/s
Output #0, mp3, to '/var/www/html/clients/107030/audio/1676B9D4-9614-42FE-23E5-A9A552550E89.mp3':
  Metadata:
    TSSE            : Lavf59.34.101
  Stream #0:0: Audio: mp3, 44100 Hz, stereo, s16p, 0 kb/s
    Metadata:
      encoder         : Lavc59.52.101 libmp3lame
size=       0kB time=-577014:32:22.77 bitrate=  -0.0kbits/s speed=N/A    
size=      97kB time=00:00:06.19 bitrate= 128.3kbits/s speed=12.4x    
size=     199kB time=00:00:12.72 bitrate= 127.9kbits/s speed=12.7x    
size=     256kB time=00:00:18.67 bitrate= 112.3kbits/s speed=12.4x    
size=     256kB time=00:00:25.00 bitrate=  83.9kbits/s speed=12.5x    
size=     256kB time=00:00:31.87 bitrate=  65.8kbits/s speed=12.7x    
size=     512kB time=00:00:38.74 bitrate= 108.3kbits/s speed=12.9x    
size=     675kB time=00:00:43.15 bitrate= 128.2kbits/s speed=  13x    
video:0kB audio:675kB subtitle:0kB other streams:0kB global headers:0kB muxing overhead: 0.036598%
20:43:36 - /var/app/video_pre_processor/assets/vidbot/_files/audio/RF12_Funky_2.mp3 PlayTime:320.76
20:43:36 - Using RF12_Funky_2.mp3 - /var/app/video_pre_processor/assets/vidbot/_files/audio/RF12_Funky_2.mp3
20:43:36 - BG MUSIC FILE /var/app/video_pre_processor/assets/vidbot/_files/audio/RF12_Funky_2.mp3 

20:43:36 - BG AUDIO CLIENT OVELAY VALUE : 0 

20:43:36 - /var/www/html/clients/107030/audio/1676B9D4-9614-42FE-23E5-A9A552550E89.wav PlayTime:43.18
20:43:36 - VParent - VOLEN:45.18 | /var/www/html/clients/107030/audio/1676B9D4-9614-42FE-23E5-A9A552550E89.mp3 | /var/app/video_pre_processor/assets/vidbot/_files/audio/RF12_Funky_2.mp3 | /var/www/html/clients/107030/audio/1676B9D4-9614-42FE-23E5-A9A552550E89.wav
20:43:36 - AUDIO PROCESS RETURN VALUE: - 1
20:43:36 - update message_remote_queue set video_process_start = '2024-06-15 20:43:36' where queue_id = 284405
20:43:36 - CLIENT INFO DATA 
{"client_id":"107030","client_fk":"76C7CE3F-D342-7955-24B5-9A65FC746E91","client_rftp_id":"2241159","client_ilot_id":"3152318","client_cc_id":"23750","client_name":"Earnhardt Chrysler Jeep Dodge RAM","client_active":"1","client_regen":"0","client_desc":"","client_createdate":"2018-09-17 21:13:27","client_enddate":"2018-10-01 07:32:41","client_update":"2018-12-11 23:21:35","client_demo":"0","client_email_forward":"","client_salesperson_name":"","client_address":"1521 E Drivers Way","client_city":"Gilbert","client_state":"AZ","client_zip":"85297","client_phone":"4809264000","client_url":"","client_yt_uname":"","client_yt_pwd":"","client_md5":"378e411ee0d9a61c187b73e17b0c06e1","client_yt_verified":"0","client_yt_error":"0","client_video_size":"HDLARGE","client_tts_vm":"2","client_video_style":"RANDOM","client_mobile":"1","client_lat_lng":"","client_acc_id":"100000","SHOW_CARSTORY":"0"}
20:43:36 - File Downloaded http://gcsimages.storage.googleapis.com/clients/107030/library/map.jpg - /var/www/html/clients/107030/library/map.jpg - FileSize:88.14 K
20:43:36 - Map Exists: /var/www/html/clients/107030/library/map.jpg
20:43:36 - Checking CUSTOM_INTRO
20:43:36 - Checking CUSTOM_OUTRO
20:43:36 - ================CREATE VIDEO START =========== 

20:43:36 - ================VIDEO JSON GEN START ==============
20:43:36 - Video Size 360
20:43:36 - ===========Video Theme font ================Dinot
20:43:36 - ==========Video fk : ==============1676B9D4-9614-42FE-23E5-A9A552550E89
20:43:36 - ==============AUDIO VIDEO CONFIG : =========={"BG_MUSIC":"RF12_Funky_2","THEME_BG_COLOR":"ffffff","THEME_ACCENTS_COLOR":"532380","THEME_FONT_COLOR":"444444","THEME_FONT":"Dinot","THEME_STYLE":"Ren","BG_VOL_LEVEL":"0.25","AUDIO_VO":"","VIDEO_SIZE":"VIDEO_LARGE","CUSTOM_INTRO":"","CUSTOM_OUTRO":"","THEME_KEY":"100000_0_Auto_Default_0_ALL","THEME_RANK":"2","THEME_CONFIG":"RESELLER_CONFIG","OLD_BG_STYLE":"0"}
20:43:36 - CLIENT FKEY :  76C7CE3F-D342-7955-24B5-9A65FC746E91  VIDEO FKEY :  1676B9D4-9614-42FE-23E5-A9A552550E89  VEHICLE FKEY :   
20:43:36 - INFO:: Video Type:SS Video Size:360 
20:43:36 - Return from CheckProfileVal function::0 - DISPLAY_MILEAGE - NO
20:43:36 - Return from CheckProfileVal function::0 - DISPLAY_MILEAGE - NO
20:43:36 - Return from CheckProfileVal function::0 - DISPLAY_PRICE - NO
20:43:36 - Return from CheckProfileVal function::0 - DISPLAY_PRICE - NO
20:43:36 - ==================ClipsGen START  =====================

20:43:36 - Return from CheckProfileVal function::0 - AUDIO_VO - NO_VO
20:43:36 - Return from CheckProfileVal function::0 - AUDIO_VO - NO_VO
20:43:36 - Return from CheckProfileVal function::0 - AUDIO_VO - LIVE_VO
20:43:36 - Return from CheckProfileVal function::0 - AUDIO_VO - LIVE_VO
20:43:36 - Return from CheckProfileVal function::0 - DISPLAY_OPTIONS - NO
20:43:36 - Return from CheckProfileVal function::0 - DISPLAY_OPTIONS - NO
20:43:36 - Return from CheckProfileVal function::0 - DISPLAY_PRICE - NO
20:43:36 - Return from CheckProfileVal function::0 - DISPLAY_PRICE - NO
20:43:36 - Return from CheckProfileVal function::0 - DISABLE_PRICE - YES
20:43:36 - Return from CheckProfileVal function::0 - DISPLAY_MILEAGE - NO
20:43:36 - Return from CheckProfileVal function::0 - DISPLAY_MILEAGE - NO
20:43:36 - Return from CheckProfileVal function::0 - DISPLAY_INFO - NO
20:43:36 - Return from CheckProfileVal function::0 - DISPLAY_INFO - NO
20:43:36 - Return from CheckProfileVal function::0 - DISPLAY_TITLE_WSNAME - NO
20:43:36 - Return from CheckProfileVal function::0 - DISPLAY_TITLE_WSNAME - NO
20:43:36 - Return from CheckProfileVal function::0 - DISPLAY_ALL_OVERLAYS - NO
20:43:36 - Return from CheckProfileVal function::0 - DISPLAY_ALL_OVERLAYS - NO
20:43:36 - Return from CheckProfileVal function::0 - DISPLAY_MAP - NO
20:43:36 - Return from CheckProfileVal function::0 - DISPLAY_MAP - NO
20:43:36 297 - ShellApp::ResizeImage - /var/www/html/clients/107030/library/map.jpg - /var/www/html/clients/107030/library/width_map_360.jpg - 640
20:43:36 - Check Height 409.6  0 - Image Type: 2
20:43:36 276 - ShellApp::CropJPEGImage - 640/325 - 409- 42 

20:43:36 - MAP : /var/www/html/clients/107030/library/map_360.jpg :  FILE SIZE : 176565
20:43:36 - =========THEME STYLE-FONT :Ren - Din  ============
20:43:36 - /usr/bin/sox  /var/app/video_pre_processor/assets/music/silence_3.wav /var/www/html/clients/107030/audio/1676B9D4-9614-42FE-23E5-A9A552550E89.wav /var/www/html/clients/107030/audio/1676B9D4-9614-42FE-23E5-A9A552550E89_info_audio.wav
20:43:36 - /var/app/video_pre_processor/assets/vidbot/_files/audio/RF12_Funky_2.mp3 PlayTime:320.76
20:43:36 - Return from CheckProfileVal function::0 - BG_MUSIC_OVER_ALL_CLIPS - YES
20:43:36 - Return from CheckProfileVal function::0 - BG_MUSIC_OVER_ALL_CLIPS - YES
20:43:36 - AUDIO TIMER: 
{"INTRO":0,"YEAR":1.93,"MODEL":3.73,"HIGH":4.59,"PRICE":15.54,"MILE":18.49,"ALL_OPTIONS":{"* General Options Intro":21.909999999999997,"Back-Up Camera":24.259999999999998,"All Wheel Drive":25.54,"ANTI-LOCK BRAKING SYSTEM":26.72,"Steering wheel audio controls":28.419999999999998,"Keyless Entry":30.589999999999996,"Traction Control":31.819999999999997,"Stability Control":33.129999999999995,"Leather Wrapped Steering Wheel":34.379999999999995,"Bluetooth":36.209999999999994,"Driver Air Bag":37.24999999999999},"OPTIONS":23.909999999999997,"OPTIONS_AUD_LENGTH":16.61,"ENDFILE":38.529999999999994}
20:43:36 - ===================ClipsGen END  ======================== 

20:43:36 - INFO:: VIDEO JSON : "1676B9D4-9614-42FE-23E5-A9A552550E89.json"
20:43:36 - node /var/app/Vidbot-V2/dist/vidbot.js --input /var/www/html/clients/107030/video/1676B9D4-9614-42FE-23E5-A9A552550E89.json --log debug > /var/www/html/clients/107030/video/1676B9D4-9614-42FE-23E5-A9A552550E89.log
20:49:11 - Generated Video File./var/www/html/clients/107030/video/1676B9D4-9614-42FE-23E5-A9A552550E89.mp4
20:49:11 - INFO:: Generated Video File./var/www/html/clients/107030/video/1676B9D4-9614-42FE-23E5-A9A552550E89.mp4
20:49:11 - INFO:: Sprite & Bookmark Option(s) not enabled
20:49:11 - ================VIDEO JSON GEN END RETURN VALUE : 1 ============== 
20:49:11 - ================CREATE VIDEO END =========== 
 ERROR : { 0}
20:49:11 - Start Time:0
20:49:11 - 0##1.93##We are pleased to show you
20:49:11 - 1.93##3.73##The 2019
20:49:11 - 3.73##4.59##Challenger
20:49:11 - 4.59##15.54##Rated Most Appealing Midsize Sport Car by J.D. Power & Associates the Dodge Challenger delivers on style and performance. It's powerful practical and efficient!
20:49:11 - 15.54##18.49##and it is priced below $25000
20:49:11 - 18.49##21.91##This Vehicle has less than 55000 miles
20:49:11 - Replacing VTT String * General Options Intro to Here are some of this Vehicle's great options
20:49:11 - 21.91##24.26##Here are some of this Vehicle's great options
20:49:11 - 24.26##25.54##Back-Up Camera
20:49:11 - 25.54##26.72##All Wheel Drive
20:49:11 - 26.72##28.42##ANTI-LOCK BRAKING SYSTEM
20:49:11 - 28.42##30.59##Steering wheel audio controls
20:49:11 - 30.59##31.82##Keyless Entry
20:49:11 - 31.82##33.13##Traction Control
20:49:11 - 33.13##34.38##Stability Control
20:49:11 - 34.38##36.21##Leather Wrapped Steering Wheel
20:49:11 - 36.21##37.25##Bluetooth
20:49:11 - 37.25##38.53##Driver Air Bag
20:49:11 - 38.53##43.18##This beauty will even make your house keys jealous.  Drive it today!
20:49:11 - Curl Response - {"error":"Video key not found [1676B9D4-9614-42FE-23E5-A9A552550E89]"}
20:49:11 - Contents - /postVTTString/ -  - 
0##1.93##We are pleased to show you|||1.93##3.73##The 2019|||3.73##4.59##Challenger|||4.59##15.54##Rated Most Appealing Midsize Sport Car by J.D. Power & Associates the Dodge Challenger delivers on style and performance. It's powerful practical and efficient!|||15.54##18.49##and it is priced below $25000|||18.49##21.91##This Vehicle has less than 55000 miles|||21.91##24.26##Here are some of this Vehicle's great options|||24.26##25.54##Back-Up Camera|||25.54##26.72##All Wheel Drive|||26.72##28.42##ANTI-LOCK BRAKING SYSTEM|||28.42##30.59##Steering wheel audio controls|||30.59##31.82##Keyless Entry|||31.82##33.13##Traction Control|||33.13##34.38##Stability Control|||34.38##36.21##Leather Wrapped Steering Wheel|||36.21##37.25##Bluetooth|||37.25##38.53##Driver Air Bag|||38.53##43.18##This beauty will even make your house keys jealous.  Drive it today!
20:49:11 - VIDEO JSON GEN RETURN VALUE: - 0
20:49:11 - update message_remote_queue set error=0, video = 1, error_message = concat( "", error_message ), process_start = '2024-06-15 20:43:32', audio_process_start = '2024-06-15 20:43:32', audio_process_end = '2024-06-15 20:43:36', video_process_start ='2024-06-15 20:43:36', video_process_end='2024-06-15 20:49:11' where queue_id = 284405
20:49:11 - ==86 - 1 Elapsed Time 339.54 ==

20:49:11 - update queue_status set stat_last_update=NOW(), type_cnt = 86, type_loop_cnt = 1355 where type_val = 'V6'
20:49:11 - Curl Response - {"code":200,"status":"Success:PostServerProcessDetails Posted For IP [209.59.156.167] and Process [V6]"}
20:49:11 - Contents - /postServerProcessDetails/ - Success:PostServerProcessDetails Posted For IP [209.59.156.167] and Process [V6] - 200
20:49:11 - update queue_status set stat_last_update=NOW(), type_cnt = 86, type_loop_cnt = 1355 where type_val = 'V6'
20:49:11 - Curl Response - {"code":200,"status":"Success:PostServerProcessDetails Posted For IP [209.59.156.167] and Process [V6]"}
20:49:11 - Contents - /postServerProcessDetails/ - Success:PostServerProcessDetails Posted For IP [209.59.156.167] and Process [V6] - 200
20:49:11 - ========== 86  - 544 mins 379.53860465116 Video Process / Start:2024-06-15 06:22:02 / Mod:5/16======
20:49:12 - Fetching  Video Jobs Mod Val : 5 Mod Limit : 16 Queue ID : 0 

20:49:12 - ========select * from message_remote_queue, hvo_data where queue_id%16 = 5 and image = 1 and video = 0 and error = 0 and hvo_queue_id = queue_id   order by high_priority_row desc, queue_id asc limit 1==================count =1
20:49:12 - Processing Auto VideoFKEY:D1CD52A4-B7EA-D54C-F83F-7597CA228D93 - QueueID:284421 
20:49:12 - CLIENT INFO  CLIENT_FK  : CE1FDC61-A05C-82FD-F91C-976C7DBCC512 ,CLIENT_INFO :{"client_id":"107731","client_fk":"CE1FDC61-A05C-82FD-F91C-976C7DBCC512","client_rftp_id":"2249266","client_ilot_id":"3051001","client_cc_id":"5355892","client_name":"Serra Kia of Jackson","client_active":"1","client_regen":"0","client_desc":"","client_createdate":"2018-11-13 08:42:24","client_enddate":"","client_update":"2018-11-13 08:42:24","client_demo":"0","client_email_forward":"","client_salesperson_name":"","client_address":"189 Stonebridge Blvd","client_city":"Jackson","client_state":"TN","client_zip":"38305","client_phone":"7316608880","client_url":"serrajackson.com","client_yt_uname":"","client_yt_pwd":"","client_md5":"2738eaaa21279afc87c9aa5186a276bb","client_yt_verified":"0","client_yt_error":"0","client_video_size":"HDLARGE","client_tts_vm":"2","client_video_style":"RANDOM","client_mobile":"1","client_lat_lng":"","client_acc_id":"100000","SHOW_CARSTORY":"0"}
20:49:12 - Rest Call: /client/videoDetails/CE1FDC61-A05C-82FD-F91C-976C7DBCC512?video_key=D1CD52A4-B7EA-D54C-F83F-7597CA228D93
20:49:12 - Curl Response - {"vehicle_id":"24132113","vehicle_client_id":"107731","vehicle_fkey":"D1CD52A4-B7EA-D54C-F83F-7597CA228D93","vehicle_uid":"1289653649","vehicle_vin":"5XYRL4JC9RG299381","vehicle_stock":"24KT9710","vehicle_year":"2024","vehicle_make":"Kia","vehicle_model":"Sorento","vehicle_trim":"S","vehicle_price":"38495","vehicle_mileage":"0","vehicle_int_color":"","vehicle_ext_color":"Midnight Lake Blue","vehicle_body_type":"Sport Utility","vehicle_listing_type":"New","vehicle_citympg":"23","vehicle_hwympg":"31","vehicle_combmpg":"","vehicle_cylinders":"4","vehicle_engine_size":"2.5 L","vehicle_trans":"Automatic","vehicle_drivetrain":"FWD","vehicle_passengers":"0","vehicle_doors":"4","vehicle_certified":"0","vehicle_special":"0","vehicle_options":"Front Wheel Drive,Power Steering,ABS,4-Wheel Disc Brakes,Brake Assist,Aluminum Wheels,Tires - Front All-Season,Tires - Rear All-Season,Temporary Spare Tire,Heated Mirrors,Power Mirror(s),Integrated Turn Signal Mirrors,Rear Defrost,Privacy Glass,Intermittent Wipers,Variable Speed Intermittent Wipers,Rear Spoiler,Power Door Locks,Daytime Running Lights,Automatic Headlights,LED Headlights,Automatic Highbeams,Fog Lamps,AM\/FM Stereo,Navigation System,Satellite Radio,MP3 Player,Bluetooth Connection,Telematics,Remote Engine Start,Auxiliary Audio Input,HD Radio,WiFi Hotspot,Smart Device Integration,Requires Subscription,Steering Wheel Audio Controls,Auxiliary Audio Input,Power Driver Seat,Bucket Seats,Heated Front Seat(s),Driver Adjustable Lumbar,Pass-Through Rear Seat,Rear Bench Seat,Adjustable Steering Wheel,Trip Computer,Power Windows,3rd Row Seat,Leather Steering Wheel,Keyless Entry,Power Door Locks,Keyless Entry,Power Door Locks,Keyless Start,Cruise Control,Adaptive Cruise Control,Climate Control,Multi-Zone A\/C,A\/C,Premium Synthetic Seats,Driver Vanity Mirror,Passenger Vanity Mirror,Driver Illuminated Vanity Mirror,Passenger Illuminated Visor Mirror,Keyless Start,Power Door Locks,Power Windows,Trip Computer,Security System,Immobilizer,Cruise Control Steering Assist,Traction Control,Stability Control,Traction Control,Front Side Air Bag,Blind Spot Monitor,Cross-Traffic Alert,Lane Departure Warning,Lane Keeping Assist,Lane Departure Warning,Front Collision Mitigation,Driver Monitoring,Rear Collision Mitigation,Rear Parking Aid,Tire Pressure Monitor,Driver Air Bag,Passenger Air Bag,Front Head Air Bag,Rear Head Air Bag,Passenger Air Bag Sensor,Front Side Air Bag,Rear Side Air Bag,Knee Air Bag,Child Safety Locks,Back-Up Camera","vehicle_desc":"Scores 31 Highway MPG and 23 City MPG! This Kia Sorento delivers a Regular Unleaded I-4 2.5 L\/152 engine powering this Automatic transmission. Wheels: 7.5J x 18 Alloy w\/Machine Finish -inc: gloss black painted pockets, Voice Activated Dual Zone Front Automatic Air Conditioning, Variable Intermittent Wipers.*This Kia Sorento Comes Equipped with These Options *Trip Computer, Transmission: 8-Speed Automatic -inc: drive mode select (comfort, eco, sport and smart), Tires: 235\/60R18, Tire Specific Low Tire Pressure Warning, Tailgate\/Rear Door Lock Included w\/Power Door Locks, SynTex Artificial Leather Seat Trim, Strut Front Suspension w\/Coil Springs, Steel Spare Wheel, Single Stainless Steel Exhaust, Side Impact Beams.* Visit Us Today *Come in for a quick visit at Serra of Jackson, 189 Stonebridge Blvd, Jackson, TN 38305 to claim your Kia Sorento!","vehicle_img_url":"https:\/\/content.homenetiol.com\/2000150\/2065303\/640x480\/64577f28f23349a0af332eac010dc477.jpg,https:\/\/content.homenetiol.com\/2000150\/2065303\/640x480\/8814e980c1c44971b5e0918e64d491a4.jpg,https:\/\/content.homenetiol.com\/2000150\/2065303\/640x480\/16e87ce26c0d465bb54233a0f835af5c.jpg,https:\/\/content.homenetiol.com\/2000150\/2065303\/640x480\/7fea393367d543aa8ce8dd67d510678c.jpg,https:\/\/content.homenetiol.com\/2000150\/2065303\/640x480\/e43e9de1cf7b41d3b549aa5ce5058e2d.jpg,https:\/\/content.homenetiol.com\/2000150\/2065303\/640x480\/00512f0f9b074a118a0d3d19b64fdac5.jpg,https:\/\/content.homenetiol.com\/2000150\/2065303\/640x480\/22e72a195a7b4f9f86c40c8ce5e9f5d1.jpg,https:\/\/content.homenetiol.com\/2000150\/2065303\/640x480\/c48d09a13dd743cca27a246348ca78d9.jpg,https:\/\/content.homenetiol.com\/2000150\/2065303\/640x480\/cc8bcaa67b8241bbbb2758f45f6294fd.jpg,https:\/\/content.homenetiol.com\/2000150\/2065303\/640x480\/c5ff60dd96844bfdaddbf6391b854f07.jpg,https:\/\/content.homenetiol.com\/2000150\/2065303\/640x480\/d07cb8f7f4c7436381679d532883619a.jpg,https:\/\/content.homenetiol.com\/2000150\/2065303\/640x480\/430f319452cf41b79f19d4f27a3ab100.jpg,https:\/\/content.homenetiol.com\/2000150\/2065303\/640x480\/3304a4bd4591463990a73065a78a1b19.jpg,https:\/\/content.homenetiol.com\/2000150\/2065303\/640x480\/b49c0023fb624d2cb31a4477406a6c54.jpg,https:\/\/content.homenetiol.com\/2000150\/2065303\/640x480\/b2c87fe59e7b4123ac94662dd8f20d9d.jpg,https:\/\/content.homenetiol.com\/2000150\/2065303\/640x480\/b6487c2ae2924cc49d23cecc36af566d.jpg,https:\/\/content.homenetiol.com\/2000150\/2065303\/640x480\/f500999b50e14a598bc325df69f097bb.jpg,https:\/\/content.homenetiol.com\/2000150\/2065303\/640x480\/e58e151f62ed4d898280b621cb9c7680.jpg,https:\/\/content.homenetiol.com\/2000150\/2065303\/640x480\/31459e9986c44cada07d2b4bc5a508b0.jpg,https:\/\/content.homenetiol.com\/2000150\/2065303\/640x480\/4d901a72adba419ca9b74c8841df76dc.jpg","vehicle_overlay_time":"","vehicle_tts_text":"","vehicle_img_cnt":"","veh_more_info":"","vehicle_create_date":"2024-06-15 20:42:00","vehicle_updated_date":"","vehicle_last_update":"2024-06-15 20:42:00","vehicle_md5":"834ae6c6397977df78a104cbaf317227","vehicle_status":"N","vehicle_view_cnt":"0","vehicle_url":"","vehicle_murl":"","vehicle_https_url":"","vehicle_delete_flag":"0","vehicle_delete_time":"","yt_url":"","yt_key":"","yt_created_on":"","cf_url":"","cf_xml":""}
20:49:12 - Rest Call: /client/getAudioVideoConfig/CE1FDC61-A05C-82FD-F91C-976C7DBCC512?listing_type=New&video_type=Auto&certified=0&vehicle_make=Kia
20:49:13 - Curl Response - {"BG_MUSIC":"PushPin","THEME_BG_COLOR":"ffffff","THEME_ACCENTS_COLOR":"532380","THEME_FONT_COLOR":"444444","THEME_FONT":"Din","THEME_STYLE":"Ren","BG_VOL_LEVEL":"0.25","AUDIO_VO":"","VIDEO_SIZE":"VIDEO_LARGE","CUSTOM_INTRO":"","CUSTOM_OUTRO":"","THEME_KEY":"100000_0_Auto_Default_0_ALL","THEME_RANK":"2","THEME_CONFIG":"RESELLER_CONFIG","OLD_BG_STYLE":"0"}
20:49:13 - Return from CheckProfileVal function::0 - DISABLE_PRICE - YES
20:49:13 - Return from CheckProfileVal function::0 - DISABLE_MILEAGE - YES
20:49:13 - Return from CheckProfileVal function::0 - DISABLE_CARSTORY - YES
20:49:13 - Config Information for D1CD52A4-B7EA-D54C-F83F-7597CA228D93 - Width:640 - CPO:0/0 - CF: - CS:0  - Intro: - Outro: - Ovleray: -THEME:100000_0_Auto_Default_0_ALL
20:49:13 - https://content.homenetiol.com/2000150/2065303/640x480/64577f28f23349a0af332eac010dc477.jpg /var/www/html/clients/107731/images/D1CD52A4-B7EA-D54C-F83F-7597CA228D93_1.jpg
20:49:13 - https://content.homenetiol.com/2000150/2065303/640x480/8814e980c1c44971b5e0918e64d491a4.jpg /var/www/html/clients/107731/images/D1CD52A4-B7EA-D54C-F83F-7597CA228D93_2.jpg
20:49:13 - https://content.homenetiol.com/2000150/2065303/640x480/16e87ce26c0d465bb54233a0f835af5c.jpg /var/www/html/clients/107731/images/D1CD52A4-B7EA-D54C-F83F-7597CA228D93_3.jpg
20:49:13 - https://content.homenetiol.com/2000150/2065303/640x480/7fea393367d543aa8ce8dd67d510678c.jpg /var/www/html/clients/107731/images/D1CD52A4-B7EA-D54C-F83F-7597CA228D93_4.jpg
20:49:13 - https://content.homenetiol.com/2000150/2065303/640x480/e43e9de1cf7b41d3b549aa5ce5058e2d.jpg /var/www/html/clients/107731/images/D1CD52A4-B7EA-D54C-F83F-7597CA228D93_5.jpg
20:49:13 - https://content.homenetiol.com/2000150/2065303/640x480/00512f0f9b074a118a0d3d19b64fdac5.jpg /var/www/html/clients/107731/images/D1CD52A4-B7EA-D54C-F83F-7597CA228D93_6.jpg
20:49:13 - https://content.homenetiol.com/2000150/2065303/640x480/22e72a195a7b4f9f86c40c8ce5e9f5d1.jpg /var/www/html/clients/107731/images/D1CD52A4-B7EA-D54C-F83F-7597CA228D93_7.jpg
20:49:13 - https://content.homenetiol.com/2000150/2065303/640x480/c48d09a13dd743cca27a246348ca78d9.jpg /var/www/html/clients/107731/images/D1CD52A4-B7EA-D54C-F83F-7597CA228D93_8.jpg
20:49:13 - https://content.homenetiol.com/2000150/2065303/640x480/cc8bcaa67b8241bbbb2758f45f6294fd.jpg /var/www/html/clients/107731/images/D1CD52A4-B7EA-D54C-F83F-7597CA228D93_9.jpg
20:49:13 - https://content.homenetiol.com/2000150/2065303/640x480/c5ff60dd96844bfdaddbf6391b854f07.jpg /var/www/html/clients/107731/images/D1CD52A4-B7EA-D54C-F83F-7597CA228D93_10.jpg
20:49:13 - https://content.homenetiol.com/2000150/2065303/640x480/d07cb8f7f4c7436381679d532883619a.jpg /var/www/html/clients/107731/images/D1CD52A4-B7EA-D54C-F83F-7597CA228D93_11.jpg
20:49:13 - https://content.homenetiol.com/2000150/2065303/640x480/430f319452cf41b79f19d4f27a3ab100.jpg /var/www/html/clients/107731/images/D1CD52A4-B7EA-D54C-F83F-7597CA228D93_12.jpg
20:49:13 - https://content.homenetiol.com/2000150/2065303/640x480/3304a4bd4591463990a73065a78a1b19.jpg /var/www/html/clients/107731/images/D1CD52A4-B7EA-D54C-F83F-7597CA228D93_13.jpg
20:49:13 - https://content.homenetiol.com/2000150/2065303/640x480/b49c0023fb624d2cb31a4477406a6c54.jpg /var/www/html/clients/107731/images/D1CD52A4-B7EA-D54C-F83F-7597CA228D93_14.jpg
20:49:13 - https://content.homenetiol.com/2000150/2065303/640x480/b2c87fe59e7b4123ac94662dd8f20d9d.jpg /var/www/html/clients/107731/images/D1CD52A4-B7EA-D54C-F83F-7597CA228D93_15.jpg
20:49:13 - https://content.homenetiol.com/2000150/2065303/640x480/b6487c2ae2924cc49d23cecc36af566d.jpg /var/www/html/clients/107731/images/D1CD52A4-B7EA-D54C-F83F-7597CA228D93_16.jpg
20:49:13 - https://content.homenetiol.com/2000150/2065303/640x480/f500999b50e14a598bc325df69f097bb.jpg /var/www/html/clients/107731/images/D1CD52A4-B7EA-D54C-F83F-7597CA228D93_17.jpg
20:49:13 - https://content.homenetiol.com/2000150/2065303/640x480/e58e151f62ed4d898280b621cb9c7680.jpg /var/www/html/clients/107731/images/D1CD52A4-B7EA-D54C-F83F-7597CA228D93_18.jpg
20:49:13 - https://content.homenetiol.com/2000150/2065303/640x480/31459e9986c44cada07d2b4bc5a508b0.jpg /var/www/html/clients/107731/images/D1CD52A4-B7EA-D54C-F83F-7597CA228D93_19.jpg
20:49:13 - https://content.homenetiol.com/2000150/2065303/640x480/4d901a72adba419ca9b74c8841df76dc.jpg /var/www/html/clients/107731/images/D1CD52A4-B7EA-D54C-F83F-7597CA228D93_20.jpg
20:49:13 - Image Count 20
20:49:13 - Setting Female English VO Constants | 0 | 0
20:49:13 - ====HVO Value:1, Audio Value:0===
20:49:13 - Return from CheckProfileVal function::0 - AUDIO_INTRO - 
20:49:13 - Return from CheckProfileVal function::0 - AUDIO_OUTRO - 
20:49:13 - ================Process HVO=========== 
 1
20:49:13 - ================CLIENT SELECT TTS VM VALUE=========== 
 2
20:49:13 - 2 - 2 - /var/app/video_pre_processor/assets/hvo/
20:49:13 - Setting Female English VO Constants | 0 | 2
20:49:13 - HVO Soap Call Method - AudoListWMIE 

20:49:13 - Getting Text For Audio Files
20:49:13 - HVO Soap Call Method - AudoListTWMIE 

20:49:13 - Getting Text For Audio Files emotionalFile 12
20:49:13 - HVO Soap Call Method - GetTTScripts 

20:49:13 - Getting Text For Audio Files introEmotionalFile 26
20:49:13 - HVO Soap Call Method - GetTTScripts 

20:49:13 - Getting Text For Audio Files scriptFile 22
20:49:13 - HVO Soap Call Method - GetTTScripts 

20:49:13 - ================TTS VM VALUE=========== 
 2
20:49:13 - ================GetVOFiles=========== 
 {"OptionFiles":[{"option_str":"* General Options Intro","option_file":"http:\/\/hvo.flickfusion.net\/audio\/options\/options_fe_audio_file_55.mp3","option_saftey":1},{"option_str":"Back-Up Camera","option_file":"http:\/\/hvo.flickfusion.net\/audio\/options\/options_fe_audio_file_337.mp3","option_saftey":1},{"option_str":"Keyless Entry","option_file":"http:\/\/hvo.flickfusion.net\/audio\/options\/options_fe_audio_file_202.mp3","option_saftey":1},{"option_str":"Steering wheel audio controls","option_file":"http:\/\/hvo.flickfusion.net\/audio\/options\/options_fe_audio_file_296.mp3","option_saftey":1},{"option_str":"Remote Engine Start","option_file":"http:\/\/hvo.flickfusion.net\/audio\/options\/options_fe_audio_file_272.mp3","option_saftey":1},{"option_str":"Navigation System","option_file":"http:\/\/hvo.flickfusion.net\/audio\/options\/options_fe_audio_file_219.mp3","option_saftey":1},{"option_str":"LED Headlights","option_file":"http:\/\/hvo.flickfusion.net\/audio\/options\/options_fe_audio_file_1349.mp3","option_saftey":1},{"option_str":"Traction Control","option_file":"http:\/\/hvo.flickfusion.net\/audio\/options\/options_fe_audio_file_18.mp3","option_saftey":2},{"option_str":"Stability Control","option_file":"http:\/\/hvo.flickfusion.net\/audio\/options\/options_fe_audio_file_17.mp3","option_saftey":2},{"option_str":"Traction Control","option_file":"http:\/\/hvo.flickfusion.net\/audio\/options\/options_fe_audio_file_18.mp3","option_saftey":2},{"option_str":"Lane Departure Warning","option_file":"http:\/\/hvo.flickfusion.net\/audio\/options\/options_fe_audio_file_1348.mp3","option_saftey":1},{"option_str":"Keyless Entry","option_file":"http:\/\/hvo.flickfusion.net\/audio\/options\/options_fe_audio_file_202.mp3","option_saftey":1},{"option_str":"Lane Departure Warning","option_file":"http:\/\/hvo.flickfusion.net\/audio\/options\/options_fe_audio_file_1348.mp3","option_saftey":1},{"option_str":"ANTI-LOCK BRAKING SYSTEM","option_file":"http:\/\/hvo.flickfusion.net\/audio\/options\/options_fe_audio_file_70.mp3","option_saftey":1},{"option_str":"Leather Wrapped Steering Wheel","option_file":"http:\/\/hvo.flickfusion.net\/audio\/options\/options_fe_audio_file_207.mp3","option_saftey":1},{"option_str":"Bluetooth","option_file":"http:\/\/hvo.flickfusion.net\/audio\/options\/options_fe_audio_file_846.mp3","option_saftey":1},{"option_str":"Power Steering","option_file":"http:\/\/hvo.flickfusion.net\/audio\/options\/options_fe_audio_file_244.mp3","option_saftey":1},{"option_str":"Driver Air Bag","option_file":"http:\/\/hvo.flickfusion.net\/audio\/options\/options_fe_audio_file_148.mp3","option_saftey":1},{"option_str":"Adjustable Steering Wheel","option_file":"http:\/\/hvo.flickfusion.net\/audio\/options\/options_fe_audio_file_74.mp3","option_saftey":1},{"option_str":"Lane Keeping Assist","option_file":"","option_saftey":1},{"option_str":"Cruise Control","option_file":"http:\/\/hvo.flickfusion.net\/audio\/options\/options_fe_audio_file_134.mp3","option_saftey":1},{"option_str":"Keyless Start","option_file":"http:\/\/hvo.flickfusion.net\/audio\/options\/options_fe_audio_file_203.mp3","option_saftey":1},{"option_str":"4-Wheel Disc Brakes","option_file":"http:\/\/hvo.flickfusion.net\/audio\/options\/options_fe_audio_file_63.mp3","option_saftey":1},{"option_str":"Keyless Start","option_file":"http:\/\/hvo.flickfusion.net\/audio\/options\/options_fe_audio_file_203.mp3","option_saftey":1},{"option_str":"Aluminum Wheels","option_file":"http:\/\/hvo.flickfusion.net\/audio\/options\/options_fe_audio_file_83.mp3","option_saftey":1},{"option_str":"Climate Control","option_file":"http:\/\/hvo.flickfusion.net\/audio\/options\/options_fe_audio_file_126.mp3","option_saftey":1},{"option_str":"FRONT WHEEL DRIVE","option_file":"http:\/\/hvo.flickfusion.net\/audio\/options\/options_fe_audio_file_170.mp3","option_saftey":1},{"option_str":"Rear Defrost","option_file":"http:\/\/hvo.flickfusion.net\/audio\/options\/options_fe_audio_file_259.mp3","option_saftey":1},{"option_str":"AM\/FM STEREO RADIO","option_file":"http:\/\/hvo.flickfusion.net\/audio\/options\/options_fe_audio_file_69.mp3","option_saftey":1},{"option_str":"MP3 Player","option_file":"http:\/\/hvo.flickfusion.net\/audio\/options\/options_fe_audio_file_211.mp3","option_saftey":1},{"option_str":"Bucket Seats","option_file":"http:\/\/hvo.flickfusion.net\/audio\/options\/options_fe_audio_file_107.mp3","option_saftey":1},{"option_str":"Fog Lamps","option_file":"http:\/\/hvo.flickfusion.net\/audio\/options\/options_fe_audio_file_171.mp3","option_saftey":1},{"option_str":"Power Windows","option_file":"http:\/\/hvo.flickfusion.net\/audio\/options\/options_fe_audio_file_2.mp3","option_saftey":1},{"option_str":"Power Door Locks","option_file":"http:\/\/hvo.flickfusion.net\/audio\/options\/options_fe_audio_file_234.mp3","option_saftey":1},{"option_str":"Trip Computer","option_file":"http:\/\/hvo.flickfusion.net\/audio\/options\/options_fe_audio_file_321.mp3","option_saftey":1},{"option_str":"Power Door Locks","option_file":"http:\/\/hvo.flickfusion.net\/audio\/options\/options_fe_audio_file_234.mp3","option_saftey":1},{"option_str":"Power Door Locks","option_file":"http:\/\/hvo.flickfusion.net\/audio\/options\/options_fe_audio_file_234.mp3","option_saftey":1},{"option_str":"Power Door Locks","option_file":"http:\/\/hvo.flickfusion.net\/audio\/options\/options_fe_audio_file_234.mp3","option_saftey":1},{"option_str":"Child Safety Locks","option_file":"http:\/\/hvo.flickfusion.net\/audio\/options\/options_fe_audio_file_122.mp3","option_saftey":1},{"option_str":"SECURITY SYSTEM","option_file":"http:\/\/hvo.flickfusion.net\/audio\/options\/options_fe_audio_file_996.mp3","option_saftey":1},{"option_str":"Trip Computer","option_file":"http:\/\/hvo.flickfusion.net\/audio\/options\/options_fe_audio_file_321.mp3","option_saftey":1},{"option_str":"Passenger Air Bag","option_file":"http:\/\/hvo.flickfusion.net\/audio\/options\/options_fe_audio_file_228.mp3","option_saftey":1},{"option_str":"Power Windows","option_file":"http:\/\/hvo.flickfusion.net\/audio\/options\/options_fe_audio_file_2.mp3","option_saftey":1},{"option_str":"Auxiliary Audio Input","option_file":"http:\/\/hvo.flickfusion.net\/audio\/options\/options_fe_audio_file_95.mp3","option_saftey":1},{"option_str":"HD Radio","option_file":"http:\/\/hvo.flickfusion.net\/audio\/options\/options_fe_audio_file_452.mp3","option_saftey":1},{"option_str":"Rear Head Air Bag","option_file":"http:\/\/hvo.flickfusion.net\/audio\/options\/options_fe_audio_file_261.mp3","option_saftey":1},{"option_str":"Auxiliary Audio Input","option_file":"http:\/\/hvo.flickfusion.net\/audio\/options\/options_fe_audio_file_95.mp3","option_saftey":1},{"option_str":"Daytime Running Lights","option_file":"http:\/\/hvo.flickfusion.net\/audio\/options\/options_fe_audio_file_142.mp3","option_saftey":1},{"option_str":"A\/C","option_file":"http:\/\/hvo.flickfusion.net\/audio\/options\/options_fe_audio_file_67.mp3","option_saftey":1},{"option_str":"Brake Assist","option_file":"http:\/\/hvo.flickfusion.net\/audio\/options\/options_fe_audio_file_104.mp3","option_saftey":1},{"option_str":"Satellite Radio","option_file":"http:\/\/hvo.flickfusion.net\/audio\/options\/options_fe_audio_file_279.mp3","option_saftey":1},{"option_str":"Passenger Illuminated Visor Mirror","option_file":"http:\/\/hvo.flickfusion.net\/audio\/options\/options_fe_audio_file_230.mp3","option_saftey":1},{"option_str":"Driver Illuminated Vanity Mirror","option_file":"http:\/\/hvo.flickfusion.net\/audio\/options\/options_fe_audio_file_149.mp3","option_saftey":1},{"option_str":"Driver Vanity Mirror","option_file":"http:\/\/hvo.flickfusion.net\/audio\/options\/options_fe_audio_file_152.mp3","option_saftey":1},{"option_str":"Power Driver Seat","option_file":"http:\/\/hvo.flickfusion.net\/audio\/options\/options_fe_audio_file_237.mp3","option_saftey":1},{"option_str":"Premium Synthetic Seats","option_file":"http:\/\/hvo.flickfusion.net\/audio\/options\/options_fe_audio_file_513.mp3","option_saftey":1},{"option_str":"Passenger Vanity Mirror","option_file":"http:\/\/hvo.flickfusion.net\/audio\/options\/options_fe_audio_file_233.mp3","option_saftey":1},{"option_str":"Privacy Glass","option_file":"http:\/\/hvo.flickfusion.net\/audio\/options\/options_fe_audio_file_249.mp3","option_saftey":1},{"option_str":"Rear Parking Aid","option_file":"http:\/\/hvo.flickfusion.net\/audio\/options\/options_fe_audio_file_262.mp3","option_saftey":1},{"option_str":"Telematics","option_file":"http:\/\/hvo.flickfusion.net\/audio\/options\/options_fe_audio_file_303.mp3","option_saftey":1},{"option_str":"Pass-Through Rear Seat","option_file":"http:\/\/hvo.flickfusion.net\/audio\/options\/options_fe_audio_file_227.mp3","option_saftey":1},{"option_str":"Integrated Turn Signal Mirrors","option_file":"http:\/\/hvo.flickfusion.net\/audio\/options\/options_fe_audio_file_198.mp3","option_saftey":1},{"option_str":"Heated Mirrors","option_file":"http:\/\/hvo.flickfusion.net\/audio\/options\/options_fe_audio_file_7.mp3","option_saftey":1},{"option_str":"ADAPTIVE CRUISE CONTROL  ","option_file":"http:\/\/hvo.flickfusion.net\/audio\/options\/options_fe_audio_file_874.mp3","option_saftey":1},{"option_str":"Rear Spoiler","option_file":"http:\/\/hvo.flickfusion.net\/audio\/options\/options_fe_audio_file_10.mp3","option_saftey":1},{"option_str":"Tire Pressure Monitor","option_file":"http:\/\/hvo.flickfusion.net\/audio\/options\/options_fe_audio_file_36.mp3","option_saftey":2},{"option_str":"Tires - Rear All-Season","option_file":"http:\/\/hvo.flickfusion.net\/audio\/options\/options_fe_audio_file_313.mp3","option_saftey":1},{"option_str":"Tires - Front All-Season","option_file":"http:\/\/hvo.flickfusion.net\/audio\/options\/options_fe_audio_file_308.mp3","option_saftey":1},{"option_str":"3RD ROW SEAT","option_file":"","option_saftey":1},{"option_str":"Blind Spot Monitor","option_file":"http:\/\/hvo.flickfusion.net\/audio\/options\/options_fe_audio_file_1428.mp3","option_saftey":1},{"option_str":"WiFi Hotspot","option_file":"http:\/\/hvo.flickfusion.net\/audio\/options\/options_fe_audio_file_1501.mp3","option_saftey":1},{"option_str":"Smart Device Integration","option_file":"http:\/\/hvo.flickfusion.net\/audio\/options\/options_fe_audio_file_1480.mp3","option_saftey":1},{"option_str":"REAR BENCH SEAT","option_file":"http:\/\/hvo.flickfusion.net\/audio\/options\/options_fe_audio_file_693.mp3","option_saftey":1},{"option_str":"Variable Speed Intermittent Wipers","option_file":"http:\/\/hvo.flickfusion.net\/audio\/options\/options_fe_audio_file_325.mp3","option_saftey":1}],"yearFile":"http:\/\/hvo.flickfusion.net\/audio\/year\/year_fe_audio_file_66.mp3","makeFile":"http:\/\/hvo.flickfusion.net\/audio\/makes\/make_name_fe_audio_file_23.mp3","modelFile":"http:\/\/hvo.flickfusion.net\/audio\/mdlnames\/model_name_fe_audio_file_177.mp3","modelHighlightFile":"http:\/\/hvo.flickfusion.net\/audio\/models\/model_fe_audio_file_177.mp3","styleFile":"","bodytypeFile":"","transFile":"http:\/\/hvo.flickfusion.net\/audio\/domain_transmission\/transmission_fe_audio_file_2.mp3","engineFile":"http:\/\/hvo.flickfusion.net\/audio\/domain_enginesize\/enginesize_fe_audio_file_5.mp3","cylindersFile":"http:\/\/hvo.flickfusion.net\/audio\/domain_cylinders\/cylinder_fe_audio_file_4.mp3","driveTrainFile":"http:\/\/hvo.flickfusion.net\/audio\/domain_drivetrain\/drivetrain_fe_audio_file_1.mp3","priceFile":"http:\/\/hvo.flickfusion.net\/audio\/prices\/price_fe_audio_file_16.mp3","mileageFile":"","carfaxFile":"","emotionalFile":"http:\/\/hvo.flickfusion.net\/audio\/emotional\/emotional_fe_audio_file_12.mp3","introEmotionalFile":"http:\/\/hvo.flickfusion.net\/audio\/emotional\/ie_fe_audio_file_26.mp3","scriptFile":"http:\/\/hvo.flickfusion.net\/audio\/domain_scripts\/script_fe_audio_file_22.mp3","statusCode":"1","statusMessage":"Audio Files Sent"}
20:49:13 - /var/www/html/clients/107731/audio/D1CD52A4-B7EA-D54C-F83F-7597CA228D93.wav
20:49:13 - ================Process HVO SOAP CALL CMD=========== 
 /usr/bin/sox
 STATUS CODE 
 1
20:49:13 - /var/app/video_pre_processor/assets/hvo/ie_fe_audio_file_26.wav PlayTime:1.96
20:49:13 - /var/app/video_pre_processor/assets/hvo/year_fe_audio_file_66.wav PlayTime:1.88
20:49:13 - /var/app/video_pre_processor/assets/hvo/model_name_fe_audio_file_177.wav PlayTime:0.94
20:49:13 - /var/app/video_pre_processor/assets/hvo/model_fe_audio_file_177.wav PlayTime:12.67
20:49:13 - Skipping VTT for BODY - bodytypeFile
20:49:13 - /var/app/video_pre_processor/assets/hvo/price_fe_audio_file_16.wav PlayTime:2.82
20:49:13 - Skipping VTT for MILE - mileageFile
20:49:13 - Curl Response - {"error":"Vehicle options not found for vehicle key[D1CD52A4-B7EA-D54C-F83F-7597CA228D93]"}
20:49:13 - ============={"error":"Vehicle options not found for vehicle key[D1CD52A4-B7EA-D54C-F83F-7597CA228D93]"}===============
20:49:13 - Skipping Duplicate Option Traction Control
20:49:13 - Skipping Duplicate Option Keyless Entry
20:49:13 - Skipping Duplicate Option Lane Departure Warning
20:49:13 - Skipping Duplicate Option Keyless Start
20:49:13 - Skipping Duplicate Option Power Door Locks
20:49:13 - Skipping Duplicate Option Power Door Locks
20:49:13 - Skipping Duplicate Option Power Door Locks
20:49:13 - Skipping Duplicate Option Trip Computer
20:49:13 - Skipping Duplicate Option Power Windows
20:49:13 - Skipping Duplicate Option Auxiliary Audio Input
20:49:13 - /var/app/video_pre_processor/assets/hvo/options_fe_audio_file_55.wav PlayTime:2.35
20:49:13 - /var/app/video_pre_processor/assets/hvo/options_fe_audio_file_337.wav PlayTime:1.28
20:49:13 - /var/app/video_pre_processor/assets/hvo/options_fe_audio_file_202.wav PlayTime:1.23
20:49:13 - /var/app/video_pre_processor/assets/hvo/options_fe_audio_file_296.wav PlayTime:2.17
20:49:13 - /var/app/video_pre_processor/assets/hvo/options_fe_audio_file_272.wav PlayTime:1.44
20:49:13 - /var/app/video_pre_processor/assets/hvo/options_fe_audio_file_219.wav PlayTime:1.59
20:49:13 - /var/app/video_pre_processor/assets/hvo/options_fe_audio_file_1349.wav PlayTime:1.56
20:49:13 - /var/app/video_pre_processor/assets/hvo/options_fe_audio_file_18.wav PlayTime:1.31
20:49:13 - /var/app/video_pre_processor/assets/hvo/options_fe_audio_file_17.wav PlayTime:1.25
20:49:13 - /var/app/video_pre_processor/assets/hvo/options_fe_audio_file_1348.wav PlayTime:1.44
20:49:13 - /var/app/video_pre_processor/assets/hvo/options_fe_audio_file_70.wav PlayTime:1.7
20:49:13 - ======= ALL Options  ========== 
null
20:49:13 - /var/www/html/clients/107731/audio/D1CD52A4-B7EA-D54C-F83F-7597CA228D93_option.wav
20:49:13 - /usr/bin/sox /var/app/video_pre_processor/assets/hvo/options_fe_audio_file_55.wav /var/app/video_pre_processor/assets/hvo/options_fe_audio_file_337.wav /var/app/video_pre_processor/assets/hvo/options_fe_audio_file_202.wav /var/app/video_pre_processor/assets/hvo/options_fe_audio_file_296.wav /var/app/video_pre_processor/assets/hvo/options_fe_audio_file_272.wav /var/app/video_pre_processor/assets/hvo/options_fe_audio_file_219.wav /var/app/video_pre_processor/assets/hvo/options_fe_audio_file_1349.wav /var/app/video_pre_processor/assets/hvo/options_fe_audio_file_18.wav /var/app/video_pre_processor/assets/hvo/options_fe_audio_file_17.wav /var/app/video_pre_processor/assets/hvo/options_fe_audio_file_1348.wav /var/app/video_pre_processor/assets/hvo/options_fe_audio_file_70.wav /var/www/html/clients/107731/audio/D1CD52A4-B7EA-D54C-F83F-7597CA228D93_option.wav
20:49:13 - /var/www/html/clients/107731/audio/D1CD52A4-B7EA-D54C-F83F-7597CA228D93_option.wav PlayTime:17.32
20:49:13 - Skipping VTT for CARFAX - carfaxFile
20:49:13 - /var/app/video_pre_processor/assets/hvo/emotional_fe_audio_file_12.wav PlayTime:5.69
20:49:13 - /usr/bin/sox /var/app/video_pre_processor/assets/hvo/ie_fe_audio_file_26.wav /var/app/video_pre_processor/assets/hvo/year_fe_audio_file_66.wav /var/app/video_pre_processor/assets/hvo/model_name_fe_audio_file_177.wav /var/app/video_pre_processor/assets/hvo/model_fe_audio_file_177.wav /var/app/video_pre_processor/assets/hvo/price_fe_audio_file_16.wav /var/www/html/clients/107731/audio/D1CD52A4-B7EA-D54C-F83F-7597CA228D93_option.wav /var/app/video_pre_processor/assets/hvo/emotional_fe_audio_file_12.wav /var/www/html/clients/107731/audio/D1CD52A4-B7EA-D54C-F83F-7597CA228D93_temp1.wav
20:49:13 - Return from CheckProfileVal function::0 - REPLACE_FULL_AUDIO - 
20:49:13 - Return from CheckProfileVal function::0 - REPLACE_FULL_AUDIO_NEW - 
20:49:13 - ========REPALCE AUDIO TRACK LISTING TYPE new \ n USED VALUE : 0 NEW AUDIO VALUE : { 0} ==============

20:49:13 - Video Length for audio merge: 0
20:49:13 - /root/bin/ffmpeg  -i /var/www/html/clients/107731/audio/D1CD52A4-B7EA-D54C-F83F-7597CA228D93.wav -f mp3 -ar 44100 -ab 320 -ac 2 -y /var/www/html/clients/107731/audio/D1CD52A4-B7EA-D54C-F83F-7597CA228D93.mp3
ffmpeg version N-109053-g9b13078c6a Copyright (c) 2000-2022 the FFmpeg developers
  built with gcc 5.4.0 (GCC)
  configuration: --prefix=/root/ffmpeg_build --pkg-config-flags=--static --extra-cflags=-I/root/ffmpeg_build/include --extra-ldflags=-L/root/ffmpeg_build/lib --extra-libs=-lpthread --extra-libs=-lm --bindir=/root/bin --enable-gpl --enable-libfdk_aac --enable-libfreetype --enable-libmp3lame --enable-libopus --enable-libvpx --enable-libx264 --enable-openssl --enable-libx265 --enable-nonfree --enable-libvidstab
  libavutil      57. 42.100 / 57. 42.100
  libavcodec     59. 52.101 / 59. 52.101
  libavformat    59. 34.101 / 59. 34.101
  libavdevice    59.  8.101 / 59.  8.101
  libavfilter     8. 50.100 /  8. 50.100
  libswscale      6.  8.112 /  6.  8.112
  libswresample   4.  9.100 /  4.  9.100
  libpostproc    56.  7.100 / 56.  7.100
Guessed Channel Layout for Input Stream #0.0 : stereo
Input #0, wav, from '/var/www/html/clients/107731/audio/D1CD52A4-B7EA-D54C-F83F-7597CA228D93.wav':
  Duration: 00:00:43.28, bitrate: 1411 kb/s
  Stream #0:0: Audio: pcm_s16le ([1][0][0][0] / 0x0001), 44100 Hz, 2 channels, s16, 1411 kb/s
Stream mapping:
  Stream #0:0 -> #0:0 (pcm_s16le (native) -> mp3 (libmp3lame))
Press [q] to stop, [?] for help
[libmp3lame @ 0x48a6480] Bitrate 320 is extremely low, maybe you mean 320k
The bitrate parameter is set too low. It takes bits/s as argument, not kbits/s
Output #0, mp3, to '/var/www/html/clients/107731/audio/D1CD52A4-B7EA-D54C-F83F-7597CA228D93.mp3':
  Metadata:
    TSSE            : Lavf59.34.101
  Stream #0:0: Audio: mp3, 44100 Hz, stereo, s16p, 0 kb/s
    Metadata:
      encoder         : Lavc59.52.101 libmp3lame
size=       0kB time=-577014:32:22.77 bitrate=  -0.0kbits/s speed=N/A    
size=      95kB time=00:00:06.03 bitrate= 128.3kbits/s speed=12.1x    
size=     198kB time=00:00:12.61 bitrate= 128.4kbits/s speed=12.6x    
size=     256kB time=00:00:19.22 bitrate= 109.1kbits/s speed=12.8x    
size=     256kB time=00:00:25.99 bitrate=  80.7kbits/s speed=  13x    
size=     256kB time=00:00:32.36 bitrate=  64.8kbits/s speed=12.9x    
size=     512kB time=00:00:39.36 bitrate= 106.5kbits/s speed=13.1x    
size=     677kB time=00:00:43.25 bitrate= 128.2kbits/s speed=13.2x    
video:0kB audio:677kB subtitle:0kB other streams:0kB global headers:0kB muxing overhead: 0.036509%
20:49:16 - /var/app/video_pre_processor/assets/vidbot/_files/audio/PushPin.mp3 PlayTime:751.67
20:49:16 - Using PushPin.mp3 - /var/app/video_pre_processor/assets/vidbot/_files/audio/PushPin.mp3
20:49:16 - BG MUSIC FILE /var/app/video_pre_processor/assets/vidbot/_files/audio/PushPin.mp3 

20:49:16 - BG AUDIO CLIENT OVELAY VALUE : 0 

20:49:16 - /var/www/html/clients/107731/audio/D1CD52A4-B7EA-D54C-F83F-7597CA228D93.wav PlayTime:43.28
20:49:16 - VParent - VOLEN:45.28 | /var/www/html/clients/107731/audio/D1CD52A4-B7EA-D54C-F83F-7597CA228D93.mp3 | /var/app/video_pre_processor/assets/vidbot/_files/audio/PushPin.mp3 | /var/www/html/clients/107731/audio/D1CD52A4-B7EA-D54C-F83F-7597CA228D93.wav
20:49:16 - AUDIO PROCESS RETURN VALUE: - 1
20:49:16 - update message_remote_queue set video_process_start = '2024-06-15 20:49:16' where queue_id = 284421
20:49:16 - CLIENT INFO DATA 
{"client_id":"107731","client_fk":"CE1FDC61-A05C-82FD-F91C-976C7DBCC512","client_rftp_id":"2249266","client_ilot_id":"3051001","client_cc_id":"5355892","client_name":"Serra Kia of Jackson","client_active":"1","client_regen":"0","client_desc":"","client_createdate":"2018-11-13 08:42:24","client_enddate":"","client_update":"2018-11-13 08:42:24","client_demo":"0","client_email_forward":"","client_salesperson_name":"","client_address":"189 Stonebridge Blvd","client_city":"Jackson","client_state":"TN","client_zip":"38305","client_phone":"7316608880","client_url":"serrajackson.com","client_yt_uname":"","client_yt_pwd":"","client_md5":"2738eaaa21279afc87c9aa5186a276bb","client_yt_verified":"0","client_yt_error":"0","client_video_size":"HDLARGE","client_tts_vm":"2","client_video_style":"RANDOM","client_mobile":"1","client_lat_lng":"","client_acc_id":"100000","SHOW_CARSTORY":"0"}
20:49:16 - Map Exists: /var/www/html/clients/107731/library/map.jpg
20:49:16 - Checking CUSTOM_INTRO
20:49:16 - Checking CUSTOM_OUTRO
20:49:16 - ================CREATE VIDEO START =========== 

20:49:16 - ================VIDEO JSON GEN START ==============
20:49:16 - Video Size 360
20:49:16 - ===========Video Theme font ================Dinot
20:49:16 - ==========Video fk : ==============D1CD52A4-B7EA-D54C-F83F-7597CA228D93
20:49:16 - ==============AUDIO VIDEO CONFIG : =========={"BG_MUSIC":"PushPin","THEME_BG_COLOR":"ffffff","THEME_ACCENTS_COLOR":"532380","THEME_FONT_COLOR":"444444","THEME_FONT":"Dinot","THEME_STYLE":"Ren","BG_VOL_LEVEL":"0.25","AUDIO_VO":"","VIDEO_SIZE":"VIDEO_LARGE","CUSTOM_INTRO":"","CUSTOM_OUTRO":"","THEME_KEY":"100000_0_Auto_Default_0_ALL","THEME_RANK":"2","THEME_CONFIG":"RESELLER_CONFIG","OLD_BG_STYLE":"0"}
20:49:16 - CLIENT FKEY :  CE1FDC61-A05C-82FD-F91C-976C7DBCC512  VIDEO FKEY :  D1CD52A4-B7EA-D54C-F83F-7597CA228D93  VEHICLE FKEY :   
20:49:16 - INFO:: Video Type:SS Video Size:360 
20:49:16 - Return from CheckProfileVal function::0 - DISPLAY_PRICE - NO
20:49:16 - Return from CheckProfileVal function::0 - DISPLAY_PRICE - NO
20:49:16 - ==================ClipsGen START  =====================

20:49:16 - Return from CheckProfileVal function::0 - AUDIO_VO - NO_VO
20:49:16 - Return from CheckProfileVal function::0 - AUDIO_VO - NO_VO
20:49:16 - Return from CheckProfileVal function::0 - AUDIO_VO - LIVE_VO
20:49:16 - Return from CheckProfileVal function::0 - AUDIO_VO - LIVE_VO
20:49:16 - Return from CheckProfileVal function::0 - DISPLAY_OPTIONS - NO
20:49:16 - Return from CheckProfileVal function::0 - DISPLAY_OPTIONS - NO
20:49:16 - Return from CheckProfileVal function::0 - DISPLAY_PRICE - NO
20:49:16 - Return from CheckProfileVal function::0 - DISPLAY_PRICE - NO
20:49:16 - Return from CheckProfileVal function::0 - DISABLE_PRICE - YES
20:49:16 - Return from CheckProfileVal function::0 - DISPLAY_MILEAGE - NO
20:49:16 - Return from CheckProfileVal function::0 - DISPLAY_MILEAGE - NO
20:49:16 - Return from CheckProfileVal function::0 - DISPLAY_INFO - NO
20:49:16 - Return from CheckProfileVal function::0 - DISPLAY_INFO - NO
20:49:16 - Return from CheckProfileVal function::0 - DISPLAY_TITLE_WSNAME - NO
20:49:16 - Return from CheckProfileVal function::0 - DISPLAY_TITLE_WSNAME - NO
20:49:16 - Return from CheckProfileVal function::0 - DISPLAY_ALL_OVERLAYS - NO
20:49:16 - Return from CheckProfileVal function::0 - DISPLAY_ALL_OVERLAYS - NO
20:49:16 - Return from CheckProfileVal function::0 - DISPLAY_MAP - NO
20:49:16 - Return from CheckProfileVal function::0 - DISPLAY_MAP - NO
20:49:16 - =========THEME STYLE-FONT :Ren - Din  ============
20:49:16 - /usr/bin/sox  /var/app/video_pre_processor/assets/music/silence_3.wav /var/www/html/clients/107731/audio/D1CD52A4-B7EA-D54C-F83F-7597CA228D93.wav /var/www/html/clients/107731/audio/D1CD52A4-B7EA-D54C-F83F-7597CA228D93_info_audio.wav
20:49:17 - /var/app/video_pre_processor/assets/vidbot/_files/audio/PushPin.mp3 PlayTime:751.67
20:49:17 - Return from CheckProfileVal function::0 - BG_MUSIC_OVER_ALL_CLIPS - YES
20:49:17 - Return from CheckProfileVal function::0 - BG_MUSIC_OVER_ALL_CLIPS - YES
20:49:17 - AUDIO TIMER: 
{"INTRO":0,"YEAR":1.96,"MODEL":3.84,"HIGH":4.779999999999999,"PRICE":17.45,"ALL_OPTIONS":{"* General Options Intro":20.27,"Back-Up Camera":22.62,"Keyless Entry":23.900000000000002,"Steering wheel audio controls":25.130000000000003,"Remote Engine Start":27.300000000000004,"Navigation System":28.740000000000006,"LED Headlights":30.330000000000005,"Traction Control":31.890000000000004,"Stability Control":33.2,"Lane Departure Warning":34.45,"ANTI-LOCK BRAKING SYSTEM":35.89},"OPTIONS":22.27,"OPTIONS_AUD_LENGTH":17.32,"ENDFILE":37.59}
20:49:17 - ===================ClipsGen END  ======================== 

20:49:17 - INFO:: VIDEO JSON : "D1CD52A4-B7EA-D54C-F83F-7597CA228D93.json"
20:49:17 - node /var/app/Vidbot-V2/dist/vidbot.js --input /var/www/html/clients/107731/video/D1CD52A4-B7EA-D54C-F83F-7597CA228D93.json --log debug > /var/www/html/clients/107731/video/D1CD52A4-B7EA-D54C-F83F-7597CA228D93.log