built with gcc 5.4.0 (GCC)
  configuration: --prefix=/root/ffmpeg_build --pkg-config-flags=--static --extra-cflags=-I/root/ffmpeg_build/include --extra-ldflags=-L/root/ffmpeg_build/lib --extra-libs=-lpthread --extra-libs=-lm --bindir=/root/bin --enable-gpl --enable-libfdk_aac --enable-libfreetype --enable-libmp3lame --enable-libopus --enable-libvpx --enable-libx264 --enable-openssl --enable-libx265 --enable-nonfree --enable-libvidstab
  libavutil      57. 42.100 / 57. 42.100
  libavcodec     59. 52.101 / 59. 52.101
  libavformat    59. 34.101 / 59. 34.101
  libavdevice    59.  8.101 / 59.  8.101
  libavfilter     8. 50.100 /  8. 50.100
  libswscale      6.  8.112 /  6.  8.112
  libswresample   4.  9.100 /  4.  9.100
  libpostproc    56.  7.100 / 56.  7.100
Guessed Channel Layout for Input Stream #0.0 : stereo
Input #0, wav, from '/var/www/html/clients/107997/audio/F3A6AFA6-9E2D-21DD-1338-63AAFD109452.wav':
  Duration: 00:00:50.78, bitrate: 1411 kb/s
  Stream #0:0: Audio: pcm_s16le ([1][0][0][0] / 0x0001), 44100 Hz, 2 channels, s16, 1411 kb/s
Stream mapping:
  Stream #0:0 -> #0:0 (pcm_s16le (native) -> mp3 (libmp3lame))
Press [q] to stop, [?] for help
[libmp3lame @ 0x3c19480] Bitrate 320 is extremely low, maybe you mean 320k
The bitrate parameter is set too low. It takes bits/s as argument, not kbits/s
Output #0, mp3, to '/var/www/html/clients/107997/audio/F3A6AFA6-9E2D-21DD-1338-63AAFD109452.mp3':
  Metadata:
    TSSE            : Lavf59.34.101
  Stream #0:0: Audio: mp3, 44100 Hz, stereo, s16p, 0 kb/s
    Metadata:
      encoder         : Lavc59.52.101 libmp3lame
size=       0kB time=-577014:32:22.77 bitrate=  -0.0kbits/s speed=N/A    
size=     111kB time=00:00:07.10 bitrate= 128.3kbits/s speed=14.2x    
size=     223kB time=00:00:14.26 bitrate= 128.1kbits/s speed=14.3x    
size=     256kB time=00:00:21.18 bitrate=  99.0kbits/s speed=14.1x    
size=     256kB time=00:00:28.34 bitrate=  74.0kbits/s speed=14.2x    
size=     512kB time=00:00:35.39 bitrate= 118.5kbits/s speed=14.1x    
size=     512kB time=00:00:42.63 bitrate=  98.4kbits/s speed=14.2x    
size=     768kB time=00:00:49.86 bitrate= 126.2kbits/s speed=14.2x    
size=     794kB time=00:00:50.75 bitrate= 128.2kbits/s speed=14.2x    
video:0kB audio:794kB subtitle:0kB other streams:0kB global headers:0kB muxing overhead: 0.031122%
20:55:23 - /var/app/video_pre_processor/assets/vidbot/_files/audio/Concept2.mp3 PlayTime:327.89
20:55:23 - Using Concept2.mp3 - /var/app/video_pre_processor/assets/vidbot/_files/audio/Concept2.mp3
20:55:23 - BG MUSIC FILE /var/app/video_pre_processor/assets/vidbot/_files/audio/Concept2.mp3 

20:55:23 - BG AUDIO CLIENT OVELAY VALUE : 0 

20:55:23 - /var/www/html/clients/107997/audio/F3A6AFA6-9E2D-21DD-1338-63AAFD109452.wav PlayTime:50.78
20:55:23 - VParent - VOLEN:52.78 | /var/www/html/clients/107997/audio/F3A6AFA6-9E2D-21DD-1338-63AAFD109452.mp3 | /var/app/video_pre_processor/assets/vidbot/_files/audio/Concept2.mp3 | /var/www/html/clients/107997/audio/F3A6AFA6-9E2D-21DD-1338-63AAFD109452.wav
20:55:23 - AUDIO PROCESS RETURN VALUE: - 1
20:55:23 - update message_remote_queue set video_process_start = '2024-06-15 20:55:23' where queue_id = 284438
20:55:23 - CLIENT INFO DATA 
{"client_id":"107997","client_fk":"029E7430-FE41-B990-DAF9-0559518E2A3F","client_rftp_id":"2267499","client_ilot_id":"3051080","client_cc_id":"19550","client_name":"Lou Fusz Buick GMC","client_active":"1","client_regen":"0","client_desc":"","client_createdate":"2019-05-13 23:18:41","client_enddate":"","client_update":"2019-05-15 23:01:24","client_demo":"0","client_email_forward":"","client_salesperson_name":"","client_address":"10950 Page Ave","client_city":"St. Louis","client_state":"MO","client_zip":"63132","client_phone":"3149834560","client_url":"www.pontiacbuickgmcdirect.com\/","client_yt_uname":"","client_yt_pwd":"","client_md5":"83d06c4ebe818e08257f1bab449d5f3d","client_yt_verified":"0","client_yt_error":"0","client_video_size":"HDLARGE","client_tts_vm":"2","client_video_style":"RANDOM","client_mobile":"1","client_lat_lng":"","client_acc_id":"100000","SHOW_CARSTORY":"0"}
20:55:23 - Map Exists: /var/www/html/clients/107997/library/map.jpg
20:55:23 - Checking CUSTOM_INTRO
20:55:23 - Checking CUSTOM_OUTRO
20:55:23 - ================CREATE VIDEO START =========== 

20:55:23 - ================VIDEO JSON GEN START ==============
20:55:23 - Video Size 360
20:55:23 - ===========Video Theme font ================Dinot
20:55:23 - ==========Video fk : ==============F3A6AFA6-9E2D-21DD-1338-63AAFD109452
20:55:23 - ==============AUDIO VIDEO CONFIG : =========={"BG_MUSIC":"Concept2","THEME_BG_COLOR":"ffffff","THEME_ACCENTS_COLOR":"532380","THEME_FONT_COLOR":"444444","THEME_FONT":"Dinot","THEME_STYLE":"Ren","BG_VOL_LEVEL":"0.25","AUDIO_VO":"","VIDEO_SIZE":"VIDEO_LARGE","CUSTOM_INTRO":"","CUSTOM_OUTRO":"","THEME_KEY":"100000_0_Auto_Default_0_ALL","THEME_RANK":"2","THEME_CONFIG":"RESELLER_CONFIG","OLD_BG_STYLE":"0"}
20:55:23 - CLIENT FKEY :  029E7430-FE41-B990-DAF9-0559518E2A3F  VIDEO FKEY :  F3A6AFA6-9E2D-21DD-1338-63AAFD109452  VEHICLE FKEY :   
20:55:23 - INFO:: Video Type:SS Video Size:360 
20:55:23 - Return from CheckProfileVal function::0 - DISPLAY_MILEAGE - NO
20:55:23 - Return from CheckProfileVal function::0 - DISPLAY_MILEAGE - NO
20:55:23 - Return from CheckProfileVal function::0 - DISPLAY_PRICE - NO
20:55:23 - Return from CheckProfileVal function::0 - DISPLAY_PRICE - NO
20:55:23 - ==================ClipsGen START  =====================

20:55:23 - Return from CheckProfileVal function::0 - AUDIO_VO - NO_VO
20:55:23 - Return from CheckProfileVal function::0 - AUDIO_VO - NO_VO
20:55:23 - Return from CheckProfileVal function::0 - AUDIO_VO - LIVE_VO
20:55:23 - Return from CheckProfileVal function::0 - AUDIO_VO - LIVE_VO
20:55:23 - Return from CheckProfileVal function::0 - DISPLAY_OPTIONS - NO
20:55:23 - Return from CheckProfileVal function::0 - DISPLAY_OPTIONS - NO
20:55:23 - Return from CheckProfileVal function::0 - DISPLAY_PRICE - NO
20:55:23 - Return from CheckProfileVal function::0 - DISPLAY_PRICE - NO
20:55:23 - Return from CheckProfileVal function::0 - DISABLE_PRICE - YES
20:55:23 - Return from CheckProfileVal function::0 - DISPLAY_MILEAGE - NO
20:55:23 - Return from CheckProfileVal function::0 - DISPLAY_MILEAGE - NO
20:55:23 - Return from CheckProfileVal function::0 - DISPLAY_INFO - NO
20:55:23 - Return from CheckProfileVal function::0 - DISPLAY_INFO - NO
20:55:23 - Return from CheckProfileVal function::0 - DISPLAY_TITLE_WSNAME - NO
20:55:23 - Return from CheckProfileVal function::0 - DISPLAY_TITLE_WSNAME - NO
20:55:23 - Return from CheckProfileVal function::0 - DISPLAY_ALL_OVERLAYS - NO
20:55:23 - Return from CheckProfileVal function::0 - DISPLAY_ALL_OVERLAYS - NO
20:55:23 - Return from CheckProfileVal function::0 - DISPLAY_MAP - NO
20:55:23 - Return from CheckProfileVal function::0 - DISPLAY_MAP - NO
20:55:23 - =========THEME STYLE-FONT :Ren - Din  ============
20:55:23 - /usr/bin/sox  /var/app/video_pre_processor/assets/music/silence_3.wav /var/www/html/clients/107997/audio/F3A6AFA6-9E2D-21DD-1338-63AAFD109452.wav /var/www/html/clients/107997/audio/F3A6AFA6-9E2D-21DD-1338-63AAFD109452_info_audio.wav
20:55:23 - /var/app/video_pre_processor/assets/vidbot/_files/audio/Concept2.mp3 PlayTime:327.89
20:55:23 - Return from CheckProfileVal function::0 - BG_MUSIC_OVER_ALL_CLIPS - YES
20:55:23 - Return from CheckProfileVal function::0 - BG_MUSIC_OVER_ALL_CLIPS - YES
20:55:23 - AUDIO TIMER: 
{"INTRO":0,"YEAR":1.96,"MODEL":3.84,"HIGH":4.68,"PRICE":22.259999999999998,"MILE":25.159999999999997,"ALL_OPTIONS":{"* General Options Intro":27.769999999999996,"ANTI-LOCK BRAKING SYSTEM":30.119999999999997,"Traction Control":31.819999999999997,"Stability Control":33.129999999999995,"Remote Engine Start":34.379999999999995,"Keyless Entry":35.81999999999999,"Steering wheel audio controls":37.04999999999999,"Lane Departure Warning":39.21999999999999,"Back-Up Camera":40.65999999999999,"Navigation System":41.93999999999999,"LED Headlights":43.529999999999994},"OPTIONS":29.769999999999996,"OPTIONS_AUD_LENGTH":17.32,"ENDFILE":45.089999999999996}
20:55:23 - ===================ClipsGen END  ======================== 

20:55:23 - INFO:: VIDEO JSON : "F3A6AFA6-9E2D-21DD-1338-63AAFD109452.json"
20:55:23 - node /var/app/Vidbot-V2/dist/vidbot.js --input /var/www/html/clients/107997/video/F3A6AFA6-9E2D-21DD-1338-63AAFD109452.json --log debug > /var/www/html/clients/107997/video/F3A6AFA6-9E2D-21DD-1338-63AAFD109452.log
21:00:39 - Generated Video File./var/www/html/clients/107997/video/F3A6AFA6-9E2D-21DD-1338-63AAFD109452.mp4
21:00:39 - INFO:: Generated Video File./var/www/html/clients/107997/video/F3A6AFA6-9E2D-21DD-1338-63AAFD109452.mp4
21:00:39 - INFO:: Sprite & Bookmark Option(s) not enabled
21:00:39 - ================VIDEO JSON GEN END RETURN VALUE : 1 ============== 
21:00:39 - ================CREATE VIDEO END =========== 
 ERROR : { 0}
21:00:39 - Start Time:0
21:00:39 - 0##1.96##You are going to love
21:00:39 - 1.96##3.84##The 2024
21:00:39 - 3.84##4.68##Canyon
21:00:39 - 4.68##22.26##With one of the most powerful standard four-cylinder engines in the class the Canyon lets you enjoy 18 City/25 Highway EPA estimated MPG and is engineered to absorb the bumps handle the curves supply superb traction and provide seating for 5!
21:00:39 - 22.26##25.16##and it is priced below $50000
21:00:39 - 25.16##27.77##This Vehicle has less than 100 miles
21:00:39 - Replacing VTT String * General Options Intro to Here are some of this Vehicle's great options
21:00:39 - 27.77##30.12##Here are some of this Vehicle's great options
21:00:39 - 30.12##31.82##ANTI-LOCK BRAKING SYSTEM
21:00:39 - 31.82##33.13##Traction Control
21:00:39 - 33.13##34.38##Stability Control
21:00:39 - 34.38##35.82##Remote Engine Start
21:00:39 - 35.82##37.05##Keyless Entry
21:00:39 - 37.05##39.22##Steering wheel audio controls
21:00:39 - 39.22##40.66##Lane Departure Warning
21:00:39 - 40.66##41.94##Back-Up Camera
21:00:39 - 41.94##43.53##Navigation System
21:00:39 - 43.53##45.09##LED Headlights
21:00:39 - 45.09##50.78##If you like it online you'll love it in your driveway.  Take it for a spin today.
21:00:39 - Curl Response - {"error":"Video key not found [F3A6AFA6-9E2D-21DD-1338-63AAFD109452]"}
21:00:39 - Contents - /postVTTString/ -  - 
0##1.96##You are going to love|||1.96##3.84##The 2024|||3.84##4.68##Canyon|||4.68##22.26##With one of the most powerful standard four-cylinder engines in the class the Canyon lets you enjoy 18 City/25 Highway EPA estimated MPG and is engineered to absorb the bumps handle the curves supply superb traction and provide seating for 5!|||22.26##25.16##and it is priced below $50000|||25.16##27.77##This Vehicle has less than 100 miles|||27.77##30.12##Here are some of this Vehicle's great options|||30.12##31.82##ANTI-LOCK BRAKING SYSTEM|||31.82##33.13##Traction Control|||33.13##34.38##Stability Control|||34.38##35.82##Remote Engine Start|||35.82##37.05##Keyless Entry|||37.05##39.22##Steering wheel audio controls|||39.22##40.66##Lane Departure Warning|||40.66##41.94##Back-Up Camera|||41.94##43.53##Navigation System|||43.53##45.09##LED Headlights|||45.09##50.78##If you like it online you'll love it in your driveway.  Take it for a spin today.
21:00:39 - VIDEO JSON GEN RETURN VALUE: - 0
21:00:39 - update message_remote_queue set error=0, video = 1, error_message = concat( "", error_message ), process_start = '2024-06-15 20:55:18', audio_process_start = '2024-06-15 20:55:18', audio_process_end = '2024-06-15 20:55:23', video_process_start ='2024-06-15 20:55:23', video_process_end='2024-06-15 21:00:39' where queue_id = 284438
21:00:39 - ==90 - 1 Elapsed Time 321.02 ==

21:00:39 - update queue_status set stat_last_update=NOW(), type_cnt = 90, type_loop_cnt = 1140 where type_val = 'V7'
21:00:39 - Curl Response - {"code":200,"status":"Success:PostServerProcessDetails Posted For IP [209.59.156.167] and Process [V7]"}
21:00:39 - Contents - /postServerProcessDetails/ - Success:PostServerProcessDetails Posted For IP [209.59.156.167] and Process [V7] - 200
21:00:39 - update queue_status set stat_last_update=NOW(), type_cnt = 90, type_loop_cnt = 1140 where type_val = 'V7'
21:00:39 - Curl Response - {"code":200,"status":"Success:PostServerProcessDetails Posted For IP [209.59.156.167] and Process [V7]"}
21:00:39 - Contents - /postServerProcessDetails/ - Success:PostServerProcessDetails Posted For IP [209.59.156.167] and Process [V7] - 200
21:00:39 - ========== 90  - 613 mins 409.21066666667 Video Process / Start:2024-06-15 06:19:01 / Mod:6/16======
21:00:40 - Fetching  Video Jobs Mod Val : 6 Mod Limit : 16 Queue ID : 0 

21:00:40 - ========select * from message_remote_queue, hvo_data where queue_id%16 = 6 and image = 1 and video = 0 and error = 0 and hvo_queue_id = queue_id   order by high_priority_row desc, queue_id asc limit 1==================count =0
21:00:40 - update queue_status set stat_last_update=NOW(), type_cnt = 90, type_loop_cnt = 1141 where type_val = 'V7'
21:00:41 - Curl Response - {"code":200,"status":"Success:PostServerProcessDetails Posted For IP [209.59.156.167] and Process [V7]"}
21:00:41 - Contents - /postServerProcessDetails/ - Success:PostServerProcessDetails Posted For IP [209.59.156.167] and Process [V7] - 200
21:00:41 - ========== 90  - 613 mins 409.21066666667 Video Process / Start:2024-06-15 06:19:01 / Mod:6/16======
21:00:56 - Fetching  Video Jobs Mod Val : 6 Mod Limit : 16 Queue ID : 0 

21:00:56 - ========select * from message_remote_queue, hvo_data where queue_id%16 = 6 and image = 1 and video = 0 and error = 0 and hvo_queue_id = queue_id   order by high_priority_row desc, queue_id asc limit 1==================count =0
21:00:56 - update queue_status set stat_last_update=NOW(), type_cnt = 90, type_loop_cnt = 1142 where type_val = 'V7'
21:00:56 - Curl Response - {"code":200,"status":"Success:PostServerProcessDetails Posted For IP [209.59.156.167] and Process [V7]"}
21:00:56 - Contents - /postServerProcessDetails/ - Success:PostServerProcessDetails Posted For IP [209.59.156.167] and Process [V7] - 200
21:00:56 - ========== 90  - 613 mins 409.21066666667 Video Process / Start:2024-06-15 06:19:01 / Mod:6/16======
21:01:11 - Fetching  Video Jobs Mod Val : 6 Mod Limit : 16 Queue ID : 0 

21:01:11 - ========select * from message_remote_queue, hvo_data where queue_id%16 = 6 and image = 1 and video = 0 and error = 0 and hvo_queue_id = queue_id   order by high_priority_row desc, queue_id asc limit 1==================count =0
21:01:11 - update queue_status set stat_last_update=NOW(), type_cnt = 90, type_loop_cnt = 1143 where type_val = 'V7'
21:01:11 - Curl Response - {"code":200,"status":"Success:PostServerProcessDetails Posted For IP [209.59.156.167] and Process [V7]"}
21:01:11 - Contents - /postServerProcessDetails/ - Success:PostServerProcessDetails Posted For IP [209.59.156.167] and Process [V7] - 200
21:01:11 - ========== 90  - 613 mins 409.21066666667 Video Process / Start:2024-06-15 06:19:01 / Mod:6/16======
21:01:26 - Fetching  Video Jobs Mod Val : 6 Mod Limit : 16 Queue ID : 0 

21:01:26 - ========select * from message_remote_queue, hvo_data where queue_id%16 = 6 and image = 1 and video = 0 and error = 0 and hvo_queue_id = queue_id   order by high_priority_row desc, queue_id asc limit 1==================count =0
21:01:26 - update queue_status set stat_last_update=NOW(), type_cnt = 90, type_loop_cnt = 1144 where type_val = 'V7'
21:01:26 - Curl Response - {"code":200,"status":"Success:PostServerProcessDetails Posted For IP [209.59.156.167] and Process [V7]"}
21:01:26 - Contents - /postServerProcessDetails/ - Success:PostServerProcessDetails Posted For IP [209.59.156.167] and Process [V7] - 200
21:01:26 - ========== 90  - 613 mins 409.21066666667 Video Process / Start:2024-06-15 06:19:01 / Mod:6/16======
21:01:41 - Fetching  Video Jobs Mod Val : 6 Mod Limit : 16 Queue ID : 0 

21:01:41 - ========select * from message_remote_queue, hvo_data where queue_id%16 = 6 and image = 1 and video = 0 and error = 0 and hvo_queue_id = queue_id   order by high_priority_row desc, queue_id asc limit 1==================count =0
21:01:41 - update queue_status set stat_last_update=NOW(), type_cnt = 90, type_loop_cnt = 1145 where type_val = 'V7'
21:01:41 - Curl Response - {"code":200,"status":"Success:PostServerProcessDetails Posted For IP [209.59.156.167] and Process [V7]"}
21:01:41 - Contents - /postServerProcessDetails/ - Success:PostServerProcessDetails Posted For IP [209.59.156.167] and Process [V7] - 200
21:01:41 - ========== 90  - 613 mins 409.21066666667 Video Process / Start:2024-06-15 06:19:01 / Mod:6/16======
21:01:56 - Fetching  Video Jobs Mod Val : 6 Mod Limit : 16 Queue ID : 0 

21:01:56 - ========select * from message_remote_queue, hvo_data where queue_id%16 = 6 and image = 1 and video = 0 and error = 0 and hvo_queue_id = queue_id   order by high_priority_row desc, queue_id asc limit 1==================count =0
21:01:56 - update queue_status set stat_last_update=NOW(), type_cnt = 90, type_loop_cnt = 1146 where type_val = 'V7'
21:01:56 - Curl Response - {"code":200,"status":"Success:PostServerProcessDetails Posted For IP [209.59.156.167] and Process [V7]"}
21:01:56 - Contents - /postServerProcessDetails/ - Success:PostServerProcessDetails Posted For IP [209.59.156.167] and Process [V7] - 200
21:01:56 - ========== 90  - 613 mins 409.21066666667 Video Process / Start:2024-06-15 06:19:01 / Mod:6/16======
21:02:11 - Fetching  Video Jobs Mod Val : 6 Mod Limit : 16 Queue ID : 0 

21:02:11 - ========select * from message_remote_queue, hvo_data where queue_id%16 = 6 and image = 1 and video = 0 and error = 0 and hvo_queue_id = queue_id   order by high_priority_row desc, queue_id asc limit 1==================count =0
21:02:11 - update queue_status set stat_last_update=NOW(), type_cnt = 90, type_loop_cnt = 1147 where type_val = 'V7'
21:02:12 - Curl Response - {"code":200,"status":"Success:PostServerProcessDetails Posted For IP [209.59.156.167] and Process [V7]"}
21:02:12 - Contents - /postServerProcessDetails/ - Success:PostServerProcessDetails Posted For IP [209.59.156.167] and Process [V7] - 200
21:02:12 - ========== 90  - 613 mins 409.21066666667 Video Process / Start:2024-06-15 06:19:01 / Mod:6/16======
21:02:27 - Fetching  Video Jobs Mod Val : 6 Mod Limit : 16 Queue ID : 0 

21:02:27 - ========select * from message_remote_queue, hvo_data where queue_id%16 = 6 and image = 1 and video = 0 and error = 0 and hvo_queue_id = queue_id   order by high_priority_row desc, queue_id asc limit 1==================count =0
21:02:27 - update queue_status set stat_last_update=NOW(), type_cnt = 90, type_loop_cnt = 1148 where type_val = 'V7'
21:02:27 - Curl Response - {"code":200,"status":"Success:PostServerProcessDetails Posted For IP [209.59.156.167] and Process [V7]"}
21:02:27 - Contents - /postServerProcessDetails/ - Success:PostServerProcessDetails Posted For IP [209.59.156.167] and Process [V7] - 200
21:02:27 - ========== 90  - 613 mins 409.21066666667 Video Process / Start:2024-06-15 06:19:01 / Mod:6/16======
21:02:42 - Fetching  Video Jobs Mod Val : 6 Mod Limit : 16 Queue ID : 0 

21:02:42 - ========select * from message_remote_queue, hvo_data where queue_id%16 = 6 and image = 1 and video = 0 and error = 0 and hvo_queue_id = queue_id   order by high_priority_row desc, queue_id asc limit 1==================count =0
21:02:42 - update queue_status set stat_last_update=NOW(), type_cnt = 90, type_loop_cnt = 1149 where type_val = 'V7'
21:02:42 - Curl Response - {"code":200,"status":"Success:PostServerProcessDetails Posted For IP [209.59.156.167] and Process [V7]"}
21:02:42 - Contents - /postServerProcessDetails/ - Success:PostServerProcessDetails Posted For IP [209.59.156.167] and Process [V7] - 200
21:02:42 - ========== 90  - 613 mins 409.21066666667 Video Process / Start:2024-06-15 06:19:01 / Mod:6/16======
21:02:57 - Fetching  Video Jobs Mod Val : 6 Mod Limit : 16 Queue ID : 0 

21:02:57 - ========select * from message_remote_queue, hvo_data where queue_id%16 = 6 and image = 1 and video = 0 and error = 0 and hvo_queue_id = queue_id   order by high_priority_row desc, queue_id asc limit 1==================count =0
21:02:57 - update queue_status set stat_last_update=NOW(), type_cnt = 90, type_loop_cnt = 1150 where type_val = 'V7'
21:02:57 - Curl Response - {"code":200,"status":"Success:PostServerProcessDetails Posted For IP [209.59.156.167] and Process [V7]"}
21:02:57 - Contents - /postServerProcessDetails/ - Success:PostServerProcessDetails Posted For IP [209.59.156.167] and Process [V7] - 200
21:02:57 - ========== 90  - 613 mins 409.21066666667 Video Process / Start:2024-06-15 06:19:01 / Mod:6/16======
21:03:12 - Fetching  Video Jobs Mod Val : 6 Mod Limit : 16 Queue ID : 0 

21:03:12 - ========select * from message_remote_queue, hvo_data where queue_id%16 = 6 and image = 1 and video = 0 and error = 0 and hvo_queue_id = queue_id   order by high_priority_row desc, queue_id asc limit 1==================count =0
21:03:12 - update queue_status set stat_last_update=NOW(), type_cnt = 90, type_loop_cnt = 1151 where type_val = 'V7'
21:03:12 - Curl Response - {"code":200,"status":"Success:PostServerProcessDetails Posted For IP [209.59.156.167] and Process [V7]"}
21:03:12 - Contents - /postServerProcessDetails/ - Success:PostServerProcessDetails Posted For IP [209.59.156.167] and Process [V7] - 200
21:03:12 - ========== 90  - 613 mins 409.21066666667 Video Process / Start:2024-06-15 06:19:01 / Mod:6/16======
21:03:27 - Fetching  Video Jobs Mod Val : 6 Mod Limit : 16 Queue ID : 0 

21:03:27 - ========select * from message_remote_queue, hvo_data where queue_id%16 = 6 and image = 1 and video = 0 and error = 0 and hvo_queue_id = queue_id   order by high_priority_row desc, queue_id asc limit 1==================count =0
21:03:27 - update queue_status set stat_last_update=NOW(), type_cnt = 90, type_loop_cnt = 1152 where type_val = 'V7'
21:03:28 - Curl Response - {"code":200,"status":"Success:PostServerProcessDetails Posted For IP [209.59.156.167] and Process [V7]"}
21:03:28 - Contents - /postServerProcessDetails/ - Success:PostServerProcessDetails Posted For IP [209.59.156.167] and Process [V7] - 200
21:03:28 - ========== 90  - 613 mins 409.21066666667 Video Process / Start:2024-06-15 06:19:01 / Mod:6/16======
21:03:43 - Fetching  Video Jobs Mod Val : 6 Mod Limit : 16 Queue ID : 0 

21:03:43 - ========select * from message_remote_queue, hvo_data where queue_id%16 = 6 and image = 1 and video = 0 and error = 0 and hvo_queue_id = queue_id   order by high_priority_row desc, queue_id asc limit 1==================count =0
21:03:43 - update queue_status set stat_last_update=NOW(), type_cnt = 90, type_loop_cnt = 1153 where type_val = 'V7'
21:03:43 - Curl Response - {"code":200,"status":"Success:PostServerProcessDetails Posted For IP [209.59.156.167] and Process [V7]"}
21:03:43 - Contents - /postServerProcessDetails/ - Success:PostServerProcessDetails Posted For IP [209.59.156.167] and Process [V7] - 200
21:03:43 - ========== 90  - 613 mins 409.21066666667 Video Process / Start:2024-06-15 06:19:01 / Mod:6/16======
21:03:58 - Fetching  Video Jobs Mod Val : 6 Mod Limit : 16 Queue ID : 0 

21:03:58 - ========select * from message_remote_queue, hvo_data where queue_id%16 = 6 and image = 1 and video = 0 and error = 0 and hvo_queue_id = queue_id   order by high_priority_row desc, queue_id asc limit 1==================count =0
21:03:58 - update queue_status set stat_last_update=NOW(), type_cnt = 90, type_loop_cnt = 1154 where type_val = 'V7'
21:03:58 - Curl Response - {"code":200,"status":"Success:PostServerProcessDetails Posted For IP [209.59.156.167] and Process [V7]"}
21:03:58 - Contents - /postServerProcessDetails/ - Success:PostServerProcessDetails Posted For IP [209.59.156.167] and Process [V7] - 200
21:03:58 - ========== 90  - 613 mins 409.21066666667 Video Process / Start:2024-06-15 06:19:01 / Mod:6/16======
21:04:13 - Fetching  Video Jobs Mod Val : 6 Mod Limit : 16 Queue ID : 0 

21:04:13 - ========select * from message_remote_queue, hvo_data where queue_id%16 = 6 and image = 1 and video = 0 and error = 0 and hvo_queue_id = queue_id   order by high_priority_row desc, queue_id asc limit 1==================count =0
21:04:13 - update queue_status set stat_last_update=NOW(), type_cnt = 90, type_loop_cnt = 1155 where type_val = 'V7'
21:04:13 - Curl Response - {"code":200,"status":"Success:PostServerProcessDetails Posted For IP [209.59.156.167] and Process [V7]"}
21:04:13 - Contents - /postServerProcessDetails/ - Success:PostServerProcessDetails Posted For IP [209.59.156.167] and Process [V7] - 200
21:04:13 - ========== 90  - 613 mins 409.21066666667 Video Process / Start:2024-06-15 06:19:01 / Mod:6/16======
21:04:28 - Fetching  Video Jobs Mod Val : 6 Mod Limit : 16 Queue ID : 0 

21:04:28 - ========select * from message_remote_queue, hvo_data where queue_id%16 = 6 and image = 1 and video = 0 and error = 0 and hvo_queue_id = queue_id   order by high_priority_row desc, queue_id asc limit 1==================count =0
21:04:28 - update queue_status set stat_last_update=NOW(), type_cnt = 90, type_loop_cnt = 1156 where type_val = 'V7'
21:04:28 - Curl Response - {"code":200,"status":"Success:PostServerProcessDetails Posted For IP [209.59.156.167] and Process [V7]"}
21:04:28 - Contents - /postServerProcessDetails/ - Success:PostServerProcessDetails Posted For IP [209.59.156.167] and Process [V7] - 200
21:04:28 - ========== 90  - 613 mins 409.21066666667 Video Process / Start:2024-06-15 06:19:01 / Mod:6/16======
21:04:43 - Fetching  Video Jobs Mod Val : 6 Mod Limit : 16 Queue ID : 0 

21:04:43 - ========select * from message_remote_queue, hvo_data where queue_id%16 = 6 and image = 1 and video = 0 and error = 0 and hvo_queue_id = queue_id   order by high_priority_row desc, queue_id asc limit 1==================count =1
21:04:43 - Processing Auto VideoFKEY:38B8C490-46D8-E5C0-440D-E8E685091A35 - QueueID:284454 
21:04:43 - CLIENT INFO  CLIENT_FK  : 97DBE343-8319-3380-1883-F317E0D625A7 ,CLIENT_INFO :{"client_id":"5717","client_fk":"97DBE343-8319-3380-1883-F317E0D625A7","client_acc_id":"3","client_name":"Toyota Subaru of Corvallis","client_desc":"Toyota Subaru Scion of Corvallis","client_color":"000000","client_player_color":"","client_textcolor":"","client_tts_text":"","client_tts_options":"","client_inactive":"0","client_createdate":"2016-06-02 14:36:39","client_enddate":"","client_update":"2020-02-20 16:03:16","client_email_forward":"","client_dealer_id":"2175326","client_franchise_number":"","client_salesperson_name":"","client_address":"800 NW 5Th Street","client_city":"Corvallis","client_state":"OR","client_zip":"97330","client_phone":"(541) 754-1515","client_url":"www.toyotaofcorvallis.com // http://www.subaruofcorvallis.com","client_fb_id":"0","client_km":"0","client_special_price":"0","client_demo":"0","client_utube_flag":"0","client_cvo":"0","client_tts":"0","client_live_uv":"0","client_live_overlay":"2","client_av":"0","client_gv":"0","client_af":"0","client_video_email":"0","client_carfax":"0","client_intro":"0","client_outro":"0","client_slider":"0","client_music_id":"1","client_ei":"0","client_tts_vm":"2","client_hvo":"1","client_mobile":"0","client_portal":"0","client_instavid":"0","client_new_stock_video":"0","client_vidmagnet":"0","client_auto_play":"1","client_cpo":"1","client_vid_stab":"0","client_vp":"0","client_xl":"0","client_carstory":"0","client_360_player":"0","client_ece":"0","client_capture_video":"0","client_new_cvo":"0","client_pip":"1","client_account_id":"1","client_crm_email":"","client_crm_dealer_id":"","client_crm_dealer_key":"","client_archive":"0","client_damage_photo":"0","client_package":"4","client_video_size":"HDLARGE","client_video_style":"FULL","client_lat_lng":"","client_comments":"","SHOW_CARSTORY":"0"}
21:04:43 - Rest Call: /client/videoDetails/97DBE343-8319-3380-1883-F317E0D625A7?video_key=38B8C490-46D8-E5C0-440D-E8E685091A35
21:04:44 - Curl Response - {"video_id":"34051015","video_fk":"38B8C490-46D8-E5C0-440D-E8E685091A35","vehicle_id":"31333306","video_client_id":"5717","video_script":"ALG Residual Value Awards, Residual Value Awards. Scores 22 Highway MPG and 18 City MPG! This TOYOTA TACOMA 4WD delivers a Regular Unleaded V-6 3.5 L\/211 engine powering this Automatic transmission. Wi-Fi Connect with up to 2GB within 3-month trial Mobile Hotspot Internet Access, Wheels: 16  x 7J Machined Contrast Alloy, Variable Intermittent Wipers.*This TOYOTA TACOMA 4WD Comes Equipped with These Options *Vanity w\/Driver And Passenger Auxiliary Mirror, Trip Computer, Transmission: 6-Speed Automatic -inc: electronically controlled w\/intelligence, Transmission w\/Oil Cooler, Trailer Wiring Harness, Toyota Safety Sense P (TSS-P), Tires: P265\/70R16 AS, Tailgate Rear Cargo Access, Steel Spare Wheel, Solid Axle Rear Suspension w\/Leaf Springs.","video_tts_script":"ALG Residual Value Awards, Residual Value Awards. Scores 22 Highway MPG and 18 City MPG! This TOYOTA TACOMA 4WD delivers a Regular Unleaded V-6 3.5 L\/211 engine powering this Automatic transmission. Wi-Fi Connect with up to 2GB within 3-month trial Mobile Hotspot Internet Access, Wheels: 16  x 7J Machined Contrast Alloy, Variable Intermittent Wipers.*This TOYOTA TACOMA 4WD Comes Equipped with These Options *Vanity w\/Driver And Passenger Auxiliary Mirror, Trip Computer, Transmission: 6-Speed Automatic -inc: electronically controlled w\/intelligence, Transmission w\/Oil Cooler, Trailer Wiring Harness, Toyota Safety Sense P (TSS-P), Tires: P265\/70R16 AS, Tailgate Rear Cargo Access, Steel Spare Wheel, Solid Axle Rear Suspension w\/Leaf Springs.","video_flv":"","video_create_time":"2021-07-13 13:33:20","video_update_time":"2024-06-15 21:03:41","audio_length":"0","video_options":"Four Wheel Drive,Locking\/Limited Slip Differential,Tow Hitch,Power Steering,ABS,Front Disc\/Rear Drum Brakes,Brake Assist,Locking\/Limited Slip Differential,Aluminum Wheels,Tires - Front All-Season,Tires - Rear All-Season,Conventional Spare Tire,Tow Hooks,Heated Mirrors,Power Mirror(s),Integrated Turn Signal Mirrors,Sliding Rear Window,Privacy Glass,Intermittent Wipers,Variable Speed Intermittent Wipers,Power Door Locks,Daytime Running Lights,Automatic Headlights,Automatic Highbeams,Fog Lamps,AM\/FM Stereo,Satellite Radio,MP3 Player,Bluetooth Connection,Auxiliary Audio Input,Smart Device Integration,Requires Subscription,Steering Wheel Audio Controls,Power Driver Seat,Bucket Seats,Driver Adjustable Lumbar,Adjustable Steering Wheel,Trip Computer,WiFi Hotspot,Leather Steering Wheel,Keyless Entry,Power Door Locks,Keyless Entry,Power Door Locks,Keyless Start,Cruise Control,Adaptive Cruise Control,Climate Control,Multi-Zone A\/C,A\/C","video_custom_flag":"0","video_title":"2021 TOYOTA TACOMA 4WD Corvallis, OR","video_local_title":"2021 TOYOTA TACOMA 4WD Corvallis, OR","video_frames":"4","video_image_url":"\/avavids\/1\/clients\/5717\/images\/38B8C490-46D8-E5C0-440D-E8E685091A35_","video_pin_id":"0","video_tts_flag":"1","video_hvo_flag":"0","video_share":"1","video_default_flag":"1","video_imgsrc_urls":"https:\/\/content.homenetiol.com\/stock_images\/5\/2021TOT09_640\/2021TOT090120_640_01.jpg,https:\/\/content.homenetiol.com\/stock_images\/5\/2021TOT09_640\/2021TOT090120_640_01.jpg,https:\/\/content.homenetiol.com\/stock_images\/5\/2021TOT09_640\/2021TOT090120_640_01.jpg,https:\/\/content.homenetiol.com\/stock_images\/5\/2021TOT09_640\/2021TOT090120_640_01.jpg","video_thumbnail_url":"","video_rendering_flag":"0","video_error_rendering":"","video_view_cnt":"158","video_delete_flag":"0","video_delete_time":"","video_batch_proc":"0","video_meta_data":"","video_custom_default":"0","video_external_flv":"https:\/\/gcsimages.s3.us-west-001.backblazeb2.com\/clients\/5717\/video\/38B8C490-46D8-E5C0-440D-E8E685091A35.mp4","video_external_wflv":"","video_external_iflv":"","video_custom_uploaded":"0","vehicle_client_id":"5717","vehicle_fkey":"F4054F3C-3845-1CCA-E49B-8C089C1D4B3C","vehicle_uid":"1192905577","vehicle_vin":"3TYSZ5AN1MT044263","vehicle_stock":"TC211601","vehicle_year":"2021","vehicle_make":"TOYOTA","vehicle_model":"TACOMA 4WD","vehicle_trim":"TRD Off Road","vehicle_price":"41527","vehicle_mileage":"10","vehicle_int_color":"BLACK","vehicle_ext_color":"MIDNIGHT BLACK METALLIC","vehicle_body_type":"TRD OFF ROAD ACCESS CAB 6","vehicle_listing_type":"New","vehicle_citympg":"","vehicle_hwympg":"","vehicle_combmpg":"","vehicle_cylinders":"0","vehicle_engine_size":"3.5","vehicle_trans":"Automatic","vehicle_drivetrain":"4WD","vehicle_passengers":"0","vehicle_doors":"4","vehicle_certified":"0","vehicle_special":"0","vehicle_options":"Four Wheel Drive,Locking\/Limited Slip Differential,Tow Hitch,Power Steering,ABS,Front Disc\/Rear Drum Brakes,Brake Assist,Locking\/Limited Slip Differential,Aluminum Wheels,Tires - Front All-Season,Tires - Rear All-Season,Conventional Spare Tire,Tow Hooks,Heated Mirrors,Power Mirror(s),Integrated Turn Signal Mirrors,Sliding Rear Window,Privacy Glass,Intermittent Wipers,Variable Speed Intermittent Wipers,Power Door Locks,Daytime Running Lights,Automatic Headlights,Automatic Highbeams,Fog Lamps,AM\/FM Stereo,Satellite Radio,MP3 Player,Bluetooth Connection,Auxiliary Audio Input,Smart Device Integration,Requires Subscription,Steering Wheel Audio Controls,Power Driver Seat,Bucket Seats,Driver Adjustable Lumbar,Adjustable Steering Wheel,Trip Computer,WiFi Hotspot,Leather Steering Wheel,Keyless Entry,Power Door Locks,Keyless Entry,Power Door Locks,Keyless Start,Cruise Control,Adaptive Cruise Control,Climate Control,Multi-Zone A\/C,A\/C","vehicle_desc":"2021 TOYOTA TACOMA 4WD Corvallis, ORStock# TC211601541-754-1515www.toyotaofcorvallis.comFor more information on this vehicle and our full inventory, call 541-754-1515.Toyota Subaru of Corvallis800 NW 5Th StCorvallis, OR 97330ALG Residual Value Awards, Residual Value Awards. Scores 22 Highway MPG and 18 City MPG! This TOYOTA TACOMA 4WD delivers a Regular Unleaded V-6 3.5 L\/211 engine powering this Automatic transmission. Wi-Fi Connect with up to 2GB within 3-month trial Mobile Hotspot Internet Access, Wheels: 16  x 7J Machined Contrast Alloy, Variable Intermittent Wipers.*This TOYOTA TACOMA 4WD Comes Equipped with These Options *Vanity w\/Driver And Passenger Auxiliary Mirror, Trip Computer, Transmission: 6-Speed Automatic -inc: electronically controlled w\/intelligence, Transmission w\/Oil Cooler, Trailer Wiring Harness, Toyota Safety Sense P (TSS-P), Tires: P265\/70R16 AS, Tailgate Rear Cargo Access, Steel Spare Wheel, Solid Axle Rear Suspension w\/Leaf Springs.","vehicle_chrome_style_id":"","vehicle_model_num":"","vehicle_stock_video":"0","vehicle_img_cnt":"4","veh_more_info":"","vehicle_create_date":"2021-07-13 13:33:20","vehicle_update_date":"2024-06-14 20:23:29","vehicle_md5":"e9dfd63ecf25a5fb51b53a3593dfd705","vehicle_status":"U","vehicle_add":"0","vehicle_delete_flag":"0","vehicle_delete_time":""}
21:04:44 - Rest Call: /client/getAudioVideoConfig/97DBE343-8319-3380-1883-F317E0D625A7?listing_type=New&video_type=Auto&certified=0&vehicle_make=TOYOTA
21:04:44 - Curl Response - {"BG_MUSIC":"No Music","THEME_BG_COLOR":"ffffff","THEME_ACCENTS_COLOR":"047ec1","THEME_FONT_COLOR":"000000","THEME_FONT":"Din","THEME_STYLE":"Ren","BG_VOL_LEVEL":"0.25","AUDIO_VO":"VO","VIDEO_SIZE":"VIDEO_LARGE","CUSTOM_INTRO":"","CUSTOM_OUTRO":"","THEME_KEY":"3_0_Auto_Default_0_ALL","THEME_RANK":"2","THEME_CONFIG":"RESELLER_CONFIG","DISABLE_PRICE":"YES","DISPLAY_INFO":"NO","DISPLAY_MAP":"NO","DISPLAY_MILEAGE":"NO","DISPLAY_OPTIONS":"NO","DISPLAY_PRICE":"NO","OLD_BG_STYLE":"0"}
21:04:44 - Return from CheckProfileVal function::1 - DISABLE_PRICE - YES
21:04:44 - Return from CheckProfileVal function::0 - DISABLE_MILEAGE - YES
21:04:44 - Return from CheckProfileVal function::0 - DISABLE_CARSTORY - YES
21:04:44 - Config Information for 38B8C490-46D8-E5C0-440D-E8E685091A35 - Width:640 - CPO:1/0 - CF:0 - CS:0  - Intro:0 - Outro:0 - Ovleray:2 -THEME:3_0_Auto_Default_0_ALL
21:04:44 - https://content.homenetiol.com/stock_images/5/2021TOT09_640/2021TOT090120_640_01.jpg /var/www/html/clients/5717/images/38B8C490-46D8-E5C0-440D-E8E685091A35_1.jpg
21:04:44 - https://content.homenetiol.com/stock_images/5/2021TOT09_640/2021TOT090120_640_01.jpg /var/www/html/clients/5717/images/38B8C490-46D8-E5C0-440D-E8E685091A35_2.jpg
21:04:44 - https://content.homenetiol.com/stock_images/5/2021TOT09_640/2021TOT090120_640_01.jpg /var/www/html/clients/5717/images/38B8C490-46D8-E5C0-440D-E8E685091A35_3.jpg
21:04:44 - https://content.homenetiol.com/stock_images/5/2021TOT09_640/2021TOT090120_640_01.jpg /var/www/html/clients/5717/images/38B8C490-46D8-E5C0-440D-E8E685091A35_4.jpg
21:04:44 - Image Count 4
21:04:44 - Setting Female English VO Constants | 0 | 0
21:04:44 - ====HVO Value:1, Audio Value:0===
21:04:44 - Return from CheckProfileVal function::0 - AUDIO_INTRO - 
21:04:44 - Return from CheckProfileVal function::0 - AUDIO_OUTRO - 
21:04:44 - ================Process HVO=========== 
 1
21:04:44 - ================CLIENT SELECT TTS VM VALUE=========== 
 2
21:04:44 - 2 - 2 - /var/app/video_pre_processor/assets/hvo/
21:04:44 - Setting Female English VO Constants | 0 | 2
21:04:44 - HVO Soap Call Method - AudoListWMIE 

21:04:44 - Getting Text For Audio Files
21:04:44 - HVO Soap Call Method - AudoListTWMIE 

21:04:44 - Getting Text For Audio Files emotionalFile 14
21:04:44 - HVO Soap Call Method - GetTTScripts 

21:04:44 - Getting Text For Audio Files introEmotionalFile 24
21:04:44 - HVO Soap Call Method - GetTTScripts 

21:04:44 - Getting Text For Audio Files scriptFile 21
21:04:44 - HVO Soap Call Method - GetTTScripts 

21:04:44 - ================TTS VM VALUE=========== 
 2
21:04:44 - ================GetVOFiles=========== 
 {"OptionFiles":[{"option_str":"* General Options Intro","option_file":"http:\/\/hvo.flickfusion.net\/audio\/options\/options_fe_audio_file_55.mp3","option_saftey":1},{"option_str":"Keyless Entry","option_file":"http:\/\/hvo.flickfusion.net\/audio\/options\/options_fe_audio_file_202.mp3","option_saftey":1},{"option_str":"ANTI-LOCK BRAKING SYSTEM","option_file":"http:\/\/hvo.flickfusion.net\/audio\/options\/options_fe_audio_file_70.mp3","option_saftey":1},{"option_str":"TOW HITCH","option_file":"http:\/\/hvo.flickfusion.net\/audio\/options\/options_fe_audio_file_531.mp3","option_saftey":1},{"option_str":"Keyless Entry","option_file":"http:\/\/hvo.flickfusion.net\/audio\/options\/options_fe_audio_file_202.mp3","option_saftey":1},{"option_str":"Steering wheel audio controls","option_file":"http:\/\/hvo.flickfusion.net\/audio\/options\/options_fe_audio_file_296.mp3","option_saftey":1},{"option_str":"Bluetooth","option_file":"http:\/\/hvo.flickfusion.net\/audio\/options\/options_fe_audio_file_846.mp3","option_saftey":1},{"option_str":"Leather Wrapped Steering Wheel","option_file":"http:\/\/hvo.flickfusion.net\/audio\/options\/options_fe_audio_file_207.mp3","option_saftey":1},{"option_str":"Adjustable Steering Wheel","option_file":"http:\/\/hvo.flickfusion.net\/audio\/options\/options_fe_audio_file_74.mp3","option_saftey":1},{"option_str":"Power Steering","option_file":"http:\/\/hvo.flickfusion.net\/audio\/options\/options_fe_audio_file_244.mp3","option_saftey":1},{"option_str":"Four Wheel Drive","option_file":"http:\/\/hvo.flickfusion.net\/audio\/options\/options_fe_audio_file_173.mp3","option_saftey":1},{"option_str":"Aluminum Wheels","option_file":"http:\/\/hvo.flickfusion.net\/audio\/options\/options_fe_audio_file_83.mp3","option_saftey":1},{"option_str":"Keyless Start","option_file":"http:\/\/hvo.flickfusion.net\/audio\/options\/options_fe_audio_file_203.mp3","option_saftey":1},{"option_str":"Cruise Control","option_file":"http:\/\/hvo.flickfusion.net\/audio\/options\/options_fe_audio_file_134.mp3","option_saftey":1},{"option_str":"AM\/FM STEREO RADIO","option_file":"http:\/\/hvo.flickfusion.net\/audio\/options\/options_fe_audio_file_69.mp3","option_saftey":1},{"option_str":"Climate Control","option_file":"http:\/\/hvo.flickfusion.net\/audio\/options\/options_fe_audio_file_126.mp3","option_saftey":1},{"option_str":"Power Door Locks","option_file":"http:\/\/hvo.flickfusion.net\/audio\/options\/options_fe_audio_file_234.mp3","option_saftey":1},{"option_str":"MP3 Player","option_file":"http:\/\/hvo.flickfusion.net\/audio\/options\/options_fe_audio_file_211.mp3","option_saftey":1},{"option_str":"Trip Computer","option_file":"http:\/\/hvo.flickfusion.net\/audio\/options\/options_fe_audio_file_321.mp3","option_saftey":1},{"option_str":"Bucket Seats","option_file":"http:\/\/hvo.flickfusion.net\/audio\/options\/options_fe_audio_file_107.mp3","option_saftey":1},{"option_str":"Fog Lamps","option_file":"http:\/\/hvo.flickfusion.net\/audio\/options\/options_fe_audio_file_171.mp3","option_saftey":1},{"option_str":"Power Door Locks","option_file":"http:\/\/hvo.flickfusion.net\/audio\/options\/options_fe_audio_file_234.mp3","option_saftey":1},{"option_str":"Power Door Locks","option_file":"http:\/\/hvo.flickfusion.net\/audio\/options\/options_fe_audio_file_234.mp3","option_saftey":1},{"option_str":"Brake Assist","option_file":"http:\/\/hvo.flickfusion.net\/audio\/options\/options_fe_audio_file_104.mp3","option_saftey":1},{"option_str":"Daytime Running Lights","option_file":"http:\/\/hvo.flickfusion.net\/audio\/options\/options_fe_audio_file_142.mp3","option_saftey":1},{"option_str":"A\/C","option_file":"http:\/\/hvo.flickfusion.net\/audio\/options\/options_fe_audio_file_67.mp3","option_saftey":1},{"option_str":"Auxiliary Audio Input","option_file":"http:\/\/hvo.flickfusion.net\/audio\/options\/options_fe_audio_file_95.mp3","option_saftey":1},{"option_str":"Satellite Radio","option_file":"http:\/\/hvo.flickfusion.net\/audio\/options\/options_fe_audio_file_279.mp3","option_saftey":1},{"option_str":"Front Disc\/Rear Drum Brakes","option_file":"http:\/\/hvo.flickfusion.net\/audio\/options\/options_fe_audio_file_175.mp3","option_saftey":1},{"option_str":"Power Driver Seat","option_file":"http:\/\/hvo.flickfusion.net\/audio\/options\/options_fe_audio_file_237.mp3","option_saftey":1},{"option_str":"Privacy Glass","option_file":"http:\/\/hvo.flickfusion.net\/audio\/options\/options_fe_audio_file_249.mp3","option_saftey":1},{"option_str":"Sliding Rear Window","option_file":"http:\/\/hvo.flickfusion.net\/audio\/options\/options_fe_audio_file_287.mp3","option_saftey":1},{"option_str":"Integrated Turn Signal Mirrors","option_file":"http:\/\/hvo.flickfusion.net\/audio\/options\/options_fe_audio_file_198.mp3","option_saftey":1},{"option_str":"Heated Mirrors","option_file":"http:\/\/hvo.flickfusion.net\/audio\/options\/options_fe_audio_file_7.mp3","option_saftey":1},{"option_str":"Tires - Rear All-Season","option_file":"http:\/\/hvo.flickfusion.net\/audio\/options\/options_fe_audio_file_313.mp3","option_saftey":1},{"option_str":"Tires - Front All-Season","option_file":"http:\/\/hvo.flickfusion.net\/audio\/options\/options_fe_audio_file_308.mp3","option_saftey":1},{"option_str":"ADAPTIVE CRUISE CONTROL  ","option_file":"http:\/\/hvo.flickfusion.net\/audio\/options\/options_fe_audio_file_874.mp3","option_saftey":1},{"option_str":"Variable Speed Intermittent Wipers","option_file":"http:\/\/hvo.flickfusion.net\/audio\/options\/options_fe_audio_file_325.mp3","option_saftey":1},{"option_str":"Smart Device Integration","option_file":"http:\/\/hvo.flickfusion.net\/audio\/options\/options_fe_audio_file_1480.mp3","option_saftey":1},{"option_str":"WiFi Hotspot","option_file":"http:\/\/hvo.flickfusion.net\/audio\/options\/options_fe_audio_file_1501.mp3","option_saftey":1}],"yearFile":"http:\/\/hvo.flickfusion.net\/audio\/year\/year_fe_audio_file_56.mp3","makeFile":"http:\/\/hvo.flickfusion.net\/audio\/makes\/make_name_fe_audio_file_49.mp3","modelFile":"http:\/\/hvo.flickfusion.net\/audio\/mdlnames\/model_name_fe_audio_file_214.mp3","modelHighlightFile":"http:\/\/hvo.flickfusion.net\/audio\/models\/model_fe_audio_file_214.mp3","styleFile":"","bodytypeFile":"","transFile":"http:\/\/hvo.flickfusion.net\/audio\/domain_transmission\/transmission_fe_audio_file_2.mp3","engineFile":"http:\/\/hvo.flickfusion.net\/audio\/domain_enginesize\/enginesize_fe_audio_file_7.mp3","cylindersFile":"","driveTrainFile":"http:\/\/hvo.flickfusion.net\/audio\/domain_drivetrain\/drivetrain_fe_audio_file_5.mp3","priceFile":"","mileageFile":"http:\/\/hvo.flickfusion.net\/audio\/mileage\/miles_fe_audio_file_33.mp3","carfaxFile":"","emotionalFile":"http:\/\/hvo.flickfusion.net\/audio\/emotional\/emotional_fe_audio_file_14.mp3","introEmotionalFile":"http:\/\/hvo.flickfusion.net\/audio\/emotional\/ie_fe_audio_file_24.mp3","scriptFile":"http:\/\/hvo.flickfusion.net\/audio\/domain_scripts\/script_fe_audio_file_21.mp3","statusCode":"1","statusMessage":"Audio Files Sent"}
21:04:44 - /var/www/html/clients/5717/audio/38B8C490-46D8-E5C0-440D-E8E685091A35.wav
21:04:44 - ================Process HVO SOAP CALL CMD=========== 
 /usr/bin/sox
 STATUS CODE 
 1
21:04:44 - /var/app/video_pre_processor/assets/hvo/ie_fe_audio_file_24.wav PlayTime:1.75
21:04:44 - /var/app/video_pre_processor/assets/hvo/year_fe_audio_file_56.wav PlayTime:1.85
21:04:44 - /var/app/video_pre_processor/assets/hvo/model_name_fe_audio_file_214.wav PlayTime:0.76
21:04:44 - /var/app/video_pre_processor/assets/hvo/model_fe_audio_file_214.wav PlayTime:11.8
21:04:44 - Skipping VTT for BODY - bodytypeFile
21:04:44 - Skipping VTT for PRICE - priceFile
21:04:44 - KM Check : 10 | 0
21:04:44 - /var/app/video_pre_processor/assets/hvo/miles_fe_audio_file_33.wav PlayTime:2.61
21:04:44 - Curl Response - {"interior":["Smart Device Integration","Keyless Entry","Adaptive Cruise Control","Satellite Radio","Auxiliary Audio Input","Steering Wheel Audio Controls","Keyless Start","Mp3 Player","Cruise Control","Trip Computer","Power Door Locks","Power Steering","Adjustable Steering Wheel","Leather Wrapped Steering Wheel","Wifi Hotspot","Power Driver Seat","Bucket Seats","Climate Control","A\/c","Am\/fm Stereo Radio"],"exterior":["Sliding Rear Window","Four Wheel Drive","Tow Hitch","Heated Mirrors","Aluminum Wheels","Power Mirrors","Brake Assist","Intermittent Wipers","Daytime Running Lights","Privacy Glass","Fog Lamps","Front Disc\/rear Drum Brakes","Tires - Front All-season","Tires - Rear All-season","Integrated Turn Signal Mirrors","Auto Headlight On\/off","Towing And Hauling, Tow Hooks","Variable Speed Intermittent Wipers"]}
21:04:44 - ============={"interior":["Smart Device Integration","Keyless Entry","Adaptive Cruise Control","Satellite Radio","Auxiliary Audio Input","Steering Wheel Audio Controls","Keyless Start","Mp3 Player","Cruise Control","Trip Computer","Power Door Locks","Power Steering","Adjustable Steering Wheel","Leather Wrapped Steering Wheel","Wifi Hotspot","Power Driver Seat","Bucket Seats","Climate Control","A\/c","Am\/fm Stereo Radio"],"exterior":["Sliding Rear Window","Four Wheel Drive","Tow Hitch","Heated Mirrors","Aluminum Wheels","Power Mirrors","Brake Assist","Intermittent Wipers","Daytime Running Lights","Privacy Glass","Fog Lamps","Front Disc\/rear Drum Brakes","Tires - Front All-season","Tires - Rear All-season","Integrated Turn Signal Mirrors","Auto Headlight On\/off","Towing And Hauling, Tow Hooks","Variable Speed Intermittent Wipers"]}===============
21:04:44 - Skipping Duplicate Option Keyless Entry
21:04:44 - Skipping Duplicate Option Power Door Locks
21:04:44 - Skipping Duplicate Option Power Door Locks
21:04:44 - /var/app/video_pre_processor/assets/hvo/options_fe_audio_file_55.wav PlayTime:2.35
21:04:44 - /var/app/video_pre_processor/assets/hvo/options_fe_audio_file_287.wav PlayTime:1.54
21:04:44 - /var/app/video_pre_processor/assets/hvo/options_fe_audio_file_173.wav PlayTime:1.31
21:04:44 - /var/app/video_pre_processor/assets/hvo/options_fe_audio_file_531.wav PlayTime:1.02
21:04:44 - /var/app/video_pre_processor/assets/hvo/options_fe_audio_file_7.wav PlayTime:1.02
21:04:44 - /var/app/video_pre_processor/assets/hvo/options_fe_audio_file_83.wav PlayTime:1.2
21:04:44 - /var/app/video_pre_processor/assets/hvo/options_fe_audio_file_104.wav PlayTime:1.12
21:04:44 - /var/app/video_pre_processor/assets/hvo/options_fe_audio_file_142.wav PlayTime:1.57
21:04:44 - /var/app/video_pre_processor/assets/hvo/options_fe_audio_file_249.wav PlayTime:1.41
21:04:44 - /var/app/video_pre_processor/assets/hvo/options_fe_audio_file_171.wav PlayTime:0.89
21:04:44 - /var/app/video_pre_processor/assets/hvo/options_fe_audio_file_175.wav PlayTime:2.22
21:04:44 - ======= ALL Options  ========== 
null
21:04:44 - /var/www/html/clients/5717/audio/38B8C490-46D8-E5C0-440D-E8E685091A35_option.wav
21:04:44 - /usr/bin/sox /var/app/video_pre_processor/assets/hvo/options_fe_audio_file_55.wav /var/app/video_pre_processor/assets/hvo/options_fe_audio_file_287.wav /var/app/video_pre_processor/assets/hvo/options_fe_audio_file_173.wav /var/app/video_pre_processor/assets/hvo/options_fe_audio_file_531.wav /var/app/video_pre_processor/assets/hvo/options_fe_audio_file_7.wav /var/app/video_pre_processor/assets/hvo/options_fe_audio_file_83.wav /var/app/video_pre_processor/assets/hvo/options_fe_audio_file_104.wav /var/app/video_pre_processor/assets/hvo/options_fe_audio_file_142.wav /var/app/video_pre_processor/assets/hvo/options_fe_audio_file_249.wav /var/app/video_pre_processor/assets/hvo/options_fe_audio_file_171.wav /var/app/video_pre_processor/assets/hvo/options_fe_audio_file_175.wav /var/www/html/clients/5717/audio/38B8C490-46D8-E5C0-440D-E8E685091A35_option.wav
21:04:44 - /var/www/html/clients/5717/audio/38B8C490-46D8-E5C0-440D-E8E685091A35_option.wav PlayTime:15.65
21:04:44 - Skipping VTT for CARFAX - carfaxFile
21:04:44 - /var/app/video_pre_processor/assets/hvo/emotional_fe_audio_file_14.wav PlayTime:8.1
21:04:44 - /usr/bin/sox /var/app/video_pre_processor/assets/hvo/ie_fe_audio_file_24.wav /var/app/video_pre_processor/assets/hvo/year_fe_audio_file_56.wav /var/app/video_pre_processor/assets/hvo/model_name_fe_audio_file_214.wav /var/app/video_pre_processor/assets/hvo/model_fe_audio_file_214.wav /var/app/video_pre_processor/assets/hvo/miles_fe_audio_file_33.wav /var/www/html/clients/5717/audio/38B8C490-46D8-E5C0-440D-E8E685091A35_option.wav /var/app/video_pre_processor/assets/hvo/emotional_fe_audio_file_14.wav /var/www/html/clients/5717/audio/38B8C490-46D8-E5C0-440D-E8E685091A35_temp1.wav
21:04:44 - Return from CheckProfileVal function::0 - REPLACE_FULL_AUDIO - 
21:04:44 - Return from CheckProfileVal function::0 - REPLACE_FULL_AUDIO_NEW - 
21:04:44 - ========REPALCE AUDIO TRACK LISTING TYPE new \ n USED VALUE : 0 NEW AUDIO VALUE : { 0} ==============

21:04:44 - Video Length for audio merge: 0
21:04:44 - /root/bin/ffmpeg  -i /var/www/html/clients/5717/audio/38B8C490-46D8-E5C0-440D-E8E685091A35.wav -f mp3 -ar 44100 -ab 320 -ac 2 -y /var/www/html/clients/5717/audio/38B8C490-46D8-E5C0-440D-E8E685091A35.mp3
ffmpeg version N-109053-g9b13078c6a Copyright (c) 2000-2022 the FFmpeg developers
  built with gcc 5.4.0 (GCC)
  configuration: --prefix=/root/ffmpeg_build --pkg-config-flags=--static --extra-cflags=-I/root/ffmpeg_build/include --extra-ldflags=-L/root/ffmpeg_build/lib --extra-libs=-lpthread --extra-libs=-lm --bindir=/root/bin --enable-gpl --enable-libfdk_aac --enable-libfreetype --enable-libmp3lame --enable-libopus --enable-libvpx --enable-libx264 --enable-openssl --enable-libx265 --enable-nonfree --enable-libvidstab
  libavutil      57. 42.100 / 57. 42.100
  libavcodec     59. 52.101 / 59. 52.101
  libavformat    59. 34.101 / 59. 34.101
  libavdevice    59.  8.101 / 59.  8.101
  libavfilter     8. 50.100 /  8. 50.100
  libswscale      6.  8.112 /  6.  8.112
  libswresample   4.  9.100 /  4.  9.100
  libpostproc    56.  7.100 / 56.  7.100
Guessed Channel Layout for Input Stream #0.0 : stereo
Input #0, wav, from '/var/www/html/clients/5717/audio/38B8C490-46D8-E5C0-440D-E8E685091A35.wav':
  Duration: 00:00:42.52, bitrate: 1411 kb/s
  Stream #0:0: Audio: pcm_s16le ([1][0][0][0] / 0x0001), 44100 Hz, 2 channels, s16, 1411 kb/s
Stream mapping:
  Stream #0:0 -> #0:0 (pcm_s16le (native) -> mp3 (libmp3lame))
Press [q] to stop, [?] for help
[libmp3lame @ 0x4718480] Bitrate 320 is extremely low, maybe you mean 320k
The bitrate parameter is set too low. It takes bits/s as argument, not kbits/s
Output #0, mp3, to '/var/www/html/clients/5717/audio/38B8C490-46D8-E5C0-440D-E8E685091A35.mp3':
  Metadata:
    TSSE            : Lavf59.34.101
  Stream #0:0: Audio: mp3, 44100 Hz, stereo, s16p, 0 kb/s
    Metadata:
      encoder         : Lavc59.52.101 libmp3lame
size=       0kB time=-577014:32:22.77 bitrate=  -0.0kbits/s speed=N/A    
size=     110kB time=00:00:06.97 bitrate= 128.7kbits/s speed=13.9x    
size=     221kB time=00:00:14.08 bitrate= 128.4kbits/s speed=14.1x    
size=     256kB time=00:00:21.10 bitrate=  99.4kbits/s speed=14.1x    
size=     256kB time=00:00:28.39 bitrate=  73.9kbits/s speed=14.2x    
size=     512kB time=00:00:35.31 bitrate= 118.8kbits/s speed=14.1x    
size=     665kB time=00:00:42.50 bitrate= 128.2kbits/s speed=14.2x    
video:0kB audio:665kB subtitle:0kB other streams:0kB global headers:0kB muxing overhead: 0.037159%
21:04:47 - /var/app/video_pre_processor/assets/vidbot/_files/audio/No Music.mp3 PlayTime:0
21:04:47 - Using bgmusic.mp3 - /var/app/video_pre_processor/assets/vidbot/_files/audio/No Music.mp3
21:04:47 - BG MUSIC FILE /var/app/video_pre_processor/assets/vidbot/_files/audio/bgmusic.mp3 

21:04:47 - BG AUDIO CLIENT OVELAY VALUE : 2 

21:04:47 - /var/www/html/clients/5717/audio/38B8C490-46D8-E5C0-440D-E8E685091A35.wav PlayTime:42.52
21:04:47 - VParent - VOLEN:44.52 | /var/www/html/clients/5717/audio/38B8C490-46D8-E5C0-440D-E8E685091A35.mp3 | /var/app/video_pre_processor/assets/vidbot/_files/audio/bgmusic.mp3 | /var/www/html/clients/5717/audio/38B8C490-46D8-E5C0-440D-E8E685091A35.wav
21:04:47 - AUDIO PROCESS RETURN VALUE: - 1
21:04:47 - update message_remote_queue set video_process_start = '2024-06-15 21:04:47' where queue_id = 284454
21:04:47 - CLIENT INFO DATA 
{"client_id":"5717","client_fk":"97DBE343-8319-3380-1883-F317E0D625A7","client_acc_id":"3","client_name":"Toyota Subaru of Corvallis","client_desc":"Toyota Subaru Scion of Corvallis","client_color":"000000","client_player_color":"","client_textcolor":"","client_tts_text":"","client_tts_options":"","client_inactive":"0","client_createdate":"2016-06-02 14:36:39","client_enddate":"","client_update":"2020-02-20 16:03:16","client_email_forward":"","client_dealer_id":"2175326","client_franchise_number":"","client_salesperson_name":"","client_address":"800 NW 5Th Street","client_city":"Corvallis","client_state":"OR","client_zip":"97330","client_phone":"(541) 754-1515","client_url":"www.toyotaofcorvallis.com \/\/ http:\/\/www.subaruofcorvallis.com","client_fb_id":"0","client_km":"0","client_special_price":"0","client_demo":"0","client_utube_flag":"0","client_cvo":"0","client_tts":"0","client_live_uv":"0","client_live_overlay":"2","client_av":"0","client_gv":"0","client_af":"0","client_video_email":"0","client_carfax":"0","client_intro":"0","client_outro":"0","client_slider":"0","client_music_id":"1","client_ei":"0","client_tts_vm":"2","client_hvo":"1","client_mobile":"0","client_portal":"0","client_instavid":"0","client_new_stock_video":"0","client_vidmagnet":"0","client_auto_play":"1","client_cpo":"1","client_vid_stab":"0","client_vp":"0","client_xl":"0","client_carstory":"0","client_360_player":"0","client_ece":"0","client_capture_video":"0","client_new_cvo":"0","client_pip":"1","client_account_id":"1","client_crm_email":"","client_crm_dealer_id":"","client_crm_dealer_key":"","client_archive":"0","client_damage_photo":"0","client_package":"4","client_video_size":"HDLARGE","client_video_style":"FULL","client_lat_lng":"","client_comments":"","SHOW_CARSTORY":"0"}
21:04:47 - Map Exists: /var/www/html/clients/5717/library/map.jpg
21:04:47 - Checking CUSTOM_INTRO
21:04:47 - Checking CUSTOM_OUTRO
21:04:47 - ================CREATE VIDEO START =========== 

21:04:47 - ================VIDEO JSON GEN START ==============
21:04:47 - Video Size 360
21:04:47 - ===========Video Theme font ================Dinot
21:04:47 - ==========Video fk : ==============38B8C490-46D8-E5C0-440D-E8E685091A35
21:04:47 - ==============AUDIO VIDEO CONFIG : =========={"BG_MUSIC":"No Music","THEME_BG_COLOR":"ffffff","THEME_ACCENTS_COLOR":"047ec1","THEME_FONT_COLOR":"000000","THEME_FONT":"Dinot","THEME_STYLE":"Ren","BG_VOL_LEVEL":"0.25","AUDIO_VO":"VO","VIDEO_SIZE":"VIDEO_LARGE","CUSTOM_INTRO":"","CUSTOM_OUTRO":"","THEME_KEY":"3_0_Auto_Default_0_ALL","THEME_RANK":"2","THEME_CONFIG":"RESELLER_CONFIG","DISABLE_PRICE":"YES","DISPLAY_INFO":"NO","DISPLAY_MAP":"NO","DISPLAY_MILEAGE":"NO","DISPLAY_OPTIONS":"NO","DISPLAY_PRICE":"NO","OLD_BG_STYLE":"0"}
21:04:47 - CLIENT FKEY :  97DBE343-8319-3380-1883-F317E0D625A7  VIDEO FKEY :  38B8C490-46D8-E5C0-440D-E8E685091A35  VEHICLE FKEY :   
21:04:47 - INFO:: Video Type:SS Video Size:360 
21:04:47 - Return from CheckProfileVal function::0 - DISPLAY_MILEAGE - NO
21:04:47 - Return from CheckProfileVal function::1 - DISPLAY_MILEAGE - NO
21:04:47 - ==================ClipsGen START  =====================

21:04:47 - Return from CheckProfileVal function::0 - AUDIO_VO - NO_VO
21:04:47 - Return from CheckProfileVal function::0 - AUDIO_VO - NO_VO
21:04:47 - Return from CheckProfileVal function::0 - AUDIO_VO - LIVE_VO
21:04:47 - Return from CheckProfileVal function::0 - AUDIO_VO - LIVE_VO
21:04:47 - Return from CheckProfileVal function::0 - DISPLAY_OPTIONS - NO
21:04:47 - Return from CheckProfileVal function::1 - DISPLAY_OPTIONS - NO
21:04:47 - Return from CheckProfileVal function::0 - DISPLAY_PRICE - NO
21:04:47 - Return from CheckProfileVal function::1 - DISPLAY_PRICE - NO
21:04:47 - Return from CheckProfileVal function::0 - DISPLAY_MILEAGE - NO
21:04:47 - Return from CheckProfileVal function::1 - DISPLAY_MILEAGE - NO
21:04:47 - Return from CheckProfileVal function::0 - DISPLAY_INFO - NO
21:04:47 - Return from CheckProfileVal function::1 - DISPLAY_INFO - NO
21:04:47 - Return from CheckProfileVal function::0 - DISPLAY_TITLE_WSNAME - NO
21:04:47 - Return from CheckProfileVal function::0 - DISPLAY_TITLE_WSNAME - NO
21:04:47 - Return from CheckProfileVal function::0 - DISPLAY_ALL_OVERLAYS - NO
21:04:47 - Return from CheckProfileVal function::0 - DISPLAY_ALL_OVERLAYS - NO
21:04:47 - Return from CheckProfileVal function::0 - DISPLAY_MAP - NO
21:04:47 - Return from CheckProfileVal function::1 - DISPLAY_MAP - NO
21:04:47 - =========THEME STYLE-FONT :Ren - Din  ============
21:04:47 - /var/app/video_pre_processor/assets/vidbot/_files/audio/bgmusic.mp3 PlayTime:957.94
21:04:47 - Return from CheckProfileVal function::0 - BG_MUSIC_OVER_ALL_CLIPS - YES
21:04:47 - Return from CheckProfileVal function::0 - BG_MUSIC_OVER_ALL_CLIPS - YES
21:04:47 - AUDIO TIMER: 
{"INTRO":0,"YEAR":1.75,"MODEL":3.6,"HIGH":4.36,"MILE":16.16,"ALL_OPTIONS":{"* General Options Intro":18.77,"Sliding Rear Window":21.12,"Four Wheel Drive":22.66,"Tow Hitch":23.97,"Heated Mirrors":24.99,"Aluminum Wheels":26.009999999999998,"Brake Assist":27.209999999999997,"Daytime Running Lights":28.33,"Privacy Glass":29.9,"Fog Lamps":31.31,"Front Disc\/rear Drum Brakes":32.199999999999996},"OPTIONS":20.77,"OPTIONS_AUD_LENGTH":15.65,"ENDFILE":34.419999999999995}
21:04:47 - ===================ClipsGen END  ======================== 

21:04:47 - INFO:: VIDEO JSON : "38B8C490-46D8-E5C0-440D-E8E685091A35.json"
21:04:47 - node /var/app/Vidbot-V2/dist/vidbot.js --input /var/www/html/clients/5717/video/38B8C490-46D8-E5C0-440D-E8E685091A35.json --log debug > /var/www/html/clients/5717/video/38B8C490-46D8-E5C0-440D-E8E685091A35.log
21:07:19 - Generated Video File./var/www/html/clients/5717/video/38B8C490-46D8-E5C0-440D-E8E685091A35.mp4
21:07:19 - INFO:: Generated Video File./var/www/html/clients/5717/video/38B8C490-46D8-E5C0-440D-E8E685091A35.mp4
21:07:19 - INFO:: Sprite & Bookmark Option(s) not enabled
21:07:19 - ================VIDEO JSON GEN END RETURN VALUE : 1 ============== 
21:07:19 - ================CREATE VIDEO END =========== 
 ERROR : { 0}
21:07:19 - Start Time:0
21:07:19 - 0##1.75##Take a ride in
21:07:19 - 1.75##3.6##The 2021
21:07:19 - 3.6##4.36##Tacoma
21:07:19 - 4.36##16.16##Toyota Tacoma boasts a roomy interior and excellent off-road capability and has been named the Best Selling Compact Pick-Up by MotorIntelligence.com five years in a row.
21:07:19 - 16.16##18.77##This Vehicle has less than 100 miles
21:07:19 - Replacing VTT String * General Options Intro to Here are some of this Vehicle's great options
21:07:19 - 18.77##21.12##Here are some of this Vehicle's great options
21:07:19 - 21.12##22.66##Sliding Rear Window
21:07:19 - 22.66##23.97##Four Wheel Drive
21:07:19 - 23.97##24.99##Tow Hitch
21:07:19 - 24.99##26.01##Heated Mirrors
21:07:19 - 26.01##27.21##Aluminum Wheels
21:07:19 - 27.21##28.33##Brake Assist
21:07:19 - 28.33##29.9##Daytime Running Lights
21:07:19 - 29.9##31.31##Privacy Glass
21:07:19 - 31.31##32.2##Fog Lamps
21:07:19 - 32.2##34.42##Front Disc/rear Drum Brakes
21:07:19 - 34.42##42.52##If affordable style and reliability are what you're looking for this vehicle couldn't be more perfect.  Drive it today!
21:07:19 - Curl Response - {"code":200,"status":"VTT Updated"}
21:07:19 - Contents - /postVTTString/ - VTT Updated - 200
0##1.75##Take a ride in|||1.75##3.6##The 2021|||3.6##4.36##Tacoma|||4.36##16.16##Toyota Tacoma boasts a roomy interior and excellent off-road capability and has been named the Best Selling Compact Pick-Up by MotorIntelligence.com five years in a row.|||16.16##18.77##This Vehicle has less than 100 miles|||18.77##21.12##Here are some of this Vehicle's great options|||21.12##22.66##Sliding Rear Window|||22.66##23.97##Four Wheel Drive|||23.97##24.99##Tow Hitch|||24.99##26.01##Heated Mirrors|||26.01##27.21##Aluminum Wheels|||27.21##28.33##Brake Assist|||28.33##29.9##Daytime Running Lights|||29.9##31.31##Privacy Glass|||31.31##32.2##Fog Lamps|||32.2##34.42##Front Disc/rear Drum Brakes|||34.42##42.52##If affordable style and reliability are what you're looking for this vehicle couldn't be more perfect.  Drive it today!
21:07:19 - VIDEO JSON GEN RETURN VALUE: - 0
21:07:19 - update message_remote_queue set error=0, video = 1, error_message = concat( "", error_message ), process_start = '2024-06-15 21:04:44', audio_process_start = '2024-06-15 21:04:44', audio_process_end = '2024-06-15 21:04:47', video_process_start ='2024-06-15 21:04:47', video_process_end='2024-06-15 21:07:19' where queue_id = 284454
21:07:19 - ==91 - 1 Elapsed Time 155.47 ==

21:07:19 - update queue_status set stat_last_update=NOW(), type_cnt = 91, type_loop_cnt = 1157 where type_val = 'V7'
21:07:19 - Curl Response - {"code":200,"status":"Success:PostServerProcessDetails Posted For IP [209.59.156.167] and Process [V7]"}
21:07:19 - Contents - /postServerProcessDetails/ - Success:PostServerProcessDetails Posted For IP [209.59.156.167] and Process [V7] - 200
21:07:19 - update queue_status set stat_last_update=NOW(), type_cnt = 91, type_loop_cnt = 1157 where type_val = 'V7'
21:07:19 - Curl Response - {"code":200,"status":"Success:PostServerProcessDetails Posted For IP [209.59.156.167] and Process [V7]"}
21:07:19 - Contents - /postServerProcessDetails/ - Success:PostServerProcessDetails Posted For IP [209.59.156.167] and Process [V7] - 200
21:07:19 - ========== 91  - 616 mins 406.42230769231 Video Process / Start:2024-06-15 06:19:01 / Mod:6/16======
21:07:20 - Fetching  Video Jobs Mod Val : 6 Mod Limit : 16 Queue ID : 0 

21:07:20 - ========select * from message_remote_queue, hvo_data where queue_id%16 = 6 and image = 1 and video = 0 and error = 0 and hvo_queue_id = queue_id   order by high_priority_row desc, queue_id asc limit 1==================count =0
21:07:20 - update queue_status set stat_last_update=NOW(), type_cnt = 91, type_loop_cnt = 1158 where type_val = 'V7'
21:07:20 - Curl Response - {"code":200,"status":"Success:PostServerProcessDetails Posted For IP [209.59.156.167] and Process [V7]"}
21:07:20 - Contents - /postServerProcessDetails/ - Success:PostServerProcessDetails Posted For IP [209.59.156.167] and Process [V7] - 200
21:07:20 - ========== 91  - 616 mins 406.42230769231 Video Process / Start:2024-06-15 06:19:01 / Mod:6/16======
21:07:35 - Fetching  Video Jobs Mod Val : 6 Mod Limit : 16 Queue ID : 0 

21:07:35 - ========select * from message_remote_queue, hvo_data where queue_id%16 = 6 and image = 1 and video = 0 and error = 0 and hvo_queue_id = queue_id   order by high_priority_row desc, queue_id asc limit 1==================count =0
21:07:35 - update queue_status set stat_last_update=NOW(), type_cnt = 91, type_loop_cnt = 1159 where type_val = 'V7'
21:07:36 - Curl Response - {"code":200,"status":"Success:PostServerProcessDetails Posted For IP [209.59.156.167] and Process [V7]"}
21:07:36 - Contents - /postServerProcessDetails/ - Success:PostServerProcessDetails Posted For IP [209.59.156.167] and Process [V7] - 200
21:07:36 - ========== 91  - 616 mins 406.42230769231 Video Process / Start:2024-06-15 06:19:01 / Mod:6/16======
21:07:51 - Fetching  Video Jobs Mod Val : 6 Mod Limit : 16 Queue ID : 0 

21:07:51 - ========select * from message_remote_queue, hvo_data where queue_id%16 = 6 and image = 1 and video = 0 and error = 0 and hvo_queue_id = queue_id   order by high_priority_row desc, queue_id asc limit 1==================count =0
21:07:51 - update queue_status set stat_last_update=NOW(), type_cnt = 91, type_loop_cnt = 1160 where type_val = 'V7'
21:07:51 - Curl Response - {"code":200,"status":"Success:PostServerProcessDetails Posted For IP [209.59.156.167] and Process [V7]"}
21:07:51 - Contents - /postServerProcessDetails/ - Success:PostServerProcessDetails Posted For IP [209.59.156.167] and Process [V7] - 200
21:07:51 - ========== 91  - 616 mins 406.42230769231 Video Process / Start:2024-06-15 06:19:01 / Mod:6/16======
21:08:06 - Fetching  Video Jobs Mod Val : 6 Mod Limit : 16 Queue ID : 0 

21:08:06 - ========select * from message_remote_queue, hvo_data where queue_id%16 = 6 and image = 1 and video = 0 and error = 0 and hvo_queue_id = queue_id   order by high_priority_row desc, queue_id asc limit 1==================count =0
21:08:06 - update queue_status set stat_last_update=NOW(), type_cnt = 91, type_loop_cnt = 1161 where type_val = 'V7'
21:08:06 - Curl Response - {"code":200,"status":"Success:PostServerProcessDetails Posted For IP [209.59.156.167] and Process [V7]"}
21:08:06 - Contents - /postServerProcessDetails/ - Success:PostServerProcessDetails Posted For IP [209.59.156.167] and Process [V7] - 200
21:08:06 - ========== 91  - 616 mins 406.42230769231 Video Process / Start:2024-06-15 06:19:01 / Mod:6/16======
21:08:21 - Fetching  Video Jobs Mod Val : 6 Mod Limit : 16 Queue ID : 0 

21:08:21 - ========select * from message_remote_queue, hvo_data where queue_id%16 = 6 and image = 1 and video = 0 and error = 0 and hvo_queue_id = queue_id   order by high_priority_row desc, queue_id asc limit 1==================count =0
21:08:21 - update queue_status set stat_last_update=NOW(), type_cnt = 91, type_loop_cnt = 1162 where type_val = 'V7'
21:08:21 - Curl Response - {"code":200,"status":"Success:PostServerProcessDetails Posted For IP [209.59.156.167] and Process [V7]"}
21:08:21 - Contents - /postServerProcessDetails/ - Success:PostServerProcessDetails Posted For IP [209.59.156.167] and Process [V7] - 200
21:08:21 - ========== 91  - 616 mins 406.42230769231 Video Process / Start:2024-06-15 06:19:01 / Mod:6/16======
21:08:36 - Fetching  Video Jobs Mod Val : 6 Mod Limit : 16 Queue ID : 0 

21:08:36 - ========select * from message_remote_queue, hvo_data where queue_id%16 = 6 and image = 1 and video = 0 and error = 0 and hvo_queue_id = queue_id   order by high_priority_row desc, queue_id asc limit 1==================count =0
21:08:36 - update queue_status set stat_last_update=NOW(), type_cnt = 91, type_loop_cnt = 1163 where type_val = 'V7'
21:08:36 - Curl Response - {"code":200,"status":"Success:PostServerProcessDetails Posted For IP [209.59.156.167] and Process [V7]"}
21:08:36 - Contents - /postServerProcessDetails/ - Success:PostServerProcessDetails Posted For IP [209.59.156.167] and Process [V7] - 200
21:08:36 - ========== 91  - 616 mins 406.42230769231 Video Process / Start:2024-06-15 06:19:01 / Mod:6/16======
21:08:51 - Fetching  Video Jobs Mod Val : 6 Mod Limit : 16 Queue ID : 0 

21:08:51 - ========select * from message_remote_queue, hvo_data where queue_id%16 = 6 and image = 1 and video = 0 and error = 0 and hvo_queue_id = queue_id   order by high_priority_row desc, queue_id asc limit 1==================count =0
21:08:51 - update queue_status set stat_last_update=NOW(), type_cnt = 91, type_loop_cnt = 1164 where type_val = 'V7'
21:08:51 - Curl Response - {"code":200,"status":"Success:PostServerProcessDetails Posted For IP [209.59.156.167] and Process [V7]"}
21:08:51 - Contents - /postServerProcessDetails/ - Success:PostServerProcessDetails Posted For IP [209.59.156.167] and Process [V7] - 200
21:08:51 - ========== 91  - 616 mins 406.42230769231 Video Process / Start:2024-06-15 06:19:01 / Mod:6/16======